<?xml version="1.0" standalone="no"?>
<!DOCTYPE svg PUBLIC "-//W3C//DTD SVG 1.1//EN" "http://www.w3.org/Graphics/SVG/1.1/DTD/svg11.dtd" >
<svg xmlns="http://www.w3.org/2000/svg">
<metadata>
This is a custom SVG webfont generated by Font Squirrel.
Copyright   : Ysgol 1 v10 Copyright C 19951996  MEU Cymru
</metadata>
<defs>
<font id="Ysgol1Regular" horiz-adv-x="1187" >
<font-face units-per-em="2048" ascent="1638" descent="-410" />
<missing-glyph horiz-adv-x="696" />
<glyph unicode=" "  horiz-adv-x="696" />
<glyph unicode="&#x09;" horiz-adv-x="696" />
<glyph unicode="&#xa0;" horiz-adv-x="696" />
<glyph unicode="!" horiz-adv-x="348" d="M82 92q-2 39 25.5 64.5t66.5 27.5t64.5 -25.5t27.5 -66.5t-25.5 -64.5t-66.5 -27.5t-64.5 25.5t-27.5 66.5zM111 338v969q0 63 63 65q66 2 66 -65l-2 -969q0 -61 -64 -64q-63 -2 -63 64z" />
<glyph unicode="&#x22;" horiz-adv-x="503" d="M82 1024v283q0 63 63 65q66 2 66 -65v-283q0 -61 -66 -63q-63 -3 -63 63zM293 1024v283q0 63 63 65t64 -65v-283q0 -61 -64 -63q-63 -3 -63 63z" />
<glyph unicode="#" d="M82 506q-2 66 65 65h201v258h-201q-63 0 -65 64q-2 63 63 63h203v222q0 63 64 65q66 2 65 -65v-222h234v222q0 63 63 65q66 2 66 -65v-222h202q61 0 64 -63q2 -63 -64 -64h-202v-258h202q61 0 64 -65q2 -63 -64 -64h-202v-249q0 -61 -64 -64q-66 -2 -65 64v249h-234v-249 q0 -61 -63 -64q-66 -2 -66 64v249h-201q-63 1 -65 64zM477 571h234v258h-234v-258z" />
<glyph unicode="$" horiz-adv-x="1118" d="M84 336q-6 31 12.5 54.5t48.5 27.5q55 0 64 -49q14 -90 90 -153.5t193 -82.5v549q-152 16 -261 102q-125 98 -125 242q0 141 125 240q113 86 261 102v62q0 63 65 65q63 2 64 -65v-62q143 -14 251 -96q119 -90 134 -225q0 -23 -18.5 -44.5t-47.5 -23.5q-39 0 -70 68 q-37 84 -79 116q-74 55 -170 74v-434q176 -18 294.5 -133t120.5 -267q2 -164 -129 -276q-117 -100 -286 -123v-63q0 -61 -64 -64q-66 -2 -65 64v63q-150 14 -259 100q-116 91 -149 232zM236 1026q-2 -78 90 -143q78 -53 166 -70v424q-90 -16 -164 -70q-90 -61 -92 -141z M621 133q115 16 194 84q90 78 92 186q2 109 -92 185q-80 66 -194 86v-541z" />
<glyph unicode="%" horiz-adv-x="1511" d="M82 1024q-2 127 88 216t219 91q127 2 216 -88t91 -219q2 -127 -88 -216t-219 -91q-127 -2 -216 88t-91 219zM211 1024q-2 -76 50 -126t128 -52q74 -2 125 51t53 127q2 70 -51 123t-127 55t-125 -51t-53 -127zM489 63q0 12 5 21l405 1243q14 43 62 45q25 0 43 -19.5 t20 -43.5q0 -14 -2 -21l-406 -1243q-14 -43 -61 -45q-20 0 -47 18q-19 18 -19 45zM815 348q-2 127 88 216t219 91q127 2 216 -88t92 -219q2 -127 -88.5 -216t-219.5 -91q-127 -2 -216 88t-91 219zM944 348q-2 -76 50.5 -126t127.5 -52q74 -2 125 51t53 127q2 70 -51 123 t-127 55t-125 -51t-53 -127z" />
<glyph unicode="&#x26;" horiz-adv-x="1159" d="M82 338q-2 133 59 223q57 84 234 187q-102 119 -107 124q-57 78 -57 152q-2 150 90 248t242 100q129 2 213 -112q76 -100 78 -236q2 -115 -99 -209q-45 -43 -157 -110l249 -308q57 106 70 181q8 55 64 57q35 2 51 -29t10 -65q-18 -94 -109 -254l152 -185q12 -18 12 -39 q0 -27 -19.5 -45t-45.5 -18q-33 0 -54 27l-118 147q-154 -172 -377 -174q-209 -2 -311 133q-68 88 -70 205zM211 338q-2 -100 76 -158q70 -49 174 -51q186 -2 297 150l-301 370q-158 -98 -189 -133q-55 -61 -57 -178zM340 1024q0 -39 63 -115q47 -53 95 -104l131 86 q74 61 76 133q2 78 -48 152q-45 68 -114 67q-96 0 -148.5 -60.5t-54.5 -158.5z" />
<glyph unicode="'" horiz-adv-x="292" d="M82 1024v283q0 63 63 65q66 2 66 -65v-283q0 -61 -66 -63q-63 -3 -63 63z" />
<glyph unicode="(" horiz-adv-x="565" d="M82 512q0 -459 283 -831q18 -25 53 -27q57 -2 65 63q0 16 -12 39q-258 367 -260 756q-2 385 260 756q12 16 12 39q0 55 -65 63q-33 0 -53 -27q-283 -364 -283 -831z" />
<glyph unicode=")" horiz-adv-x="565" d="M82 -283q0 -57 63 -63q35 0 56 27q283 369 282 831q0 457 -282 829q-20 27 -54 29q-25 2 -45 -18.5t-20 -44.5q0 -16 12 -39q258 -367 260 -756q2 -385 -260 -756q-12 -16 -12 -39z" />
<glyph unicode="*" horiz-adv-x="696" d="M82 1161q-2 55 63 64q14 0 21 -2l117 -39v123q0 63 65 65q63 2 64 -65v-123l118 39q12 0 21 2q55 0 63 -64q0 -47 -45 -61l-116 -39l71 -98q12 -16 13 -39q0 -25 -19.5 -44.5t-44.5 -19.5q-29 0 -53 27l-72 98l-72 -98q-18 -25 -53 -27q-27 -2 -45 17.5t-18 46.5 q0 18 12 39l72 100l-117 37q-43 14 -45 61z" />
<glyph unicode="+" d="M82 512q-2 66 65 66h383v383q0 61 64 63q66 2 65 -63v-383l383 -3q61 0 64 -63q2 -63 -64 -63h-383v-383q0 -63 -65 -66q-63 -2 -64 66v383h-383q-63 0 -65 63z" />
<glyph unicode="," horiz-adv-x="348" d="M82 92q-2 -33 24 -65q23 -23 62 -27q0 -37 -23.5 -76t-56.5 -51v-33q63 18 118.5 100.5t59.5 151.5q2 39 -25.5 64.5t-66.5 27.5t-64.5 -25.5t-27.5 -66.5z" />
<glyph unicode="-" d="M82 512q-2 66 65 66h895q61 0 64 -66q2 -63 -64 -63h-895q-63 0 -65 63z" />
<glyph unicode="." horiz-adv-x="348" d="M82 92q-2 39 25.5 64.5t66.5 27.5t64.5 -25.5t27.5 -66.5t-25.5 -64.5t-66.5 -27.5t-64.5 25.5t-27.5 66.5z" />
<glyph unicode="/" horiz-adv-x="698" d="M82 63q0 12 4 21l406 1243q14 43 59 45q57 2 65 -63q0 -14 -2 -21l-405 -1243q-14 -43 -62 -45q-20 0 -47 18q-18 18 -18 45z" />
<glyph unicode="0" horiz-adv-x="1003" d="M82 410v532q0 176 122 298t298 122t298 -122t122 -298v-532q0 -176 -122 -298t-298 -122t-298 122t-122 298zM211 410q0 -125 83 -207t208 -84q121 -2 206 84t85 207v532q0 119 -86 205t-205 86q-121 0 -206 -85t-85 -206v-532z" />
<glyph unicode="1" horiz-adv-x="528" d="M82 1100q0 31 22 49l238 199q16 12 41 16q31 0 47 -19.5t16 -52.5v-1237q0 -63 -63 -65q-66 -2 -66 65v1104l-129 -108q-16 -12 -43 -17q-27 0 -45 19.5t-18 46.5z" />
<glyph unicode="2" horiz-adv-x="989" d="M82 63q0 23 18 46l580 673l61 74q37 59 37 131q0 104 -70.5 174t-175.5 72q-100 2 -171.5 -70.5t-73.5 -175.5q-2 -61 -64 -63q-66 -2 -65 63q-2 154 108.5 264.5t265.5 110.5q156 0 265.5 -109.5t109.5 -265.5q0 -98 -41 -174q-14 -27 -90 -115l-491 -569h551 q63 0 65 -63q2 -66 -65 -66h-689q-63 0 -65 63z" />
<glyph unicode="3" horiz-adv-x="1003" d="M82 408q-2 -176 121 -296t299 -122q174 -2 297 122t123 298q0 113 -57.5 211t-153.5 153q119 98 120 258q2 135 -96 232.5t-233 97.5q-137 0 -233.5 -96.5t-98.5 -233.5q0 -63 66 -65q61 -2 63 63q2 86 59.5 143.5t143.5 59.5q82 2 140 -58.5t60 -142.5q2 -84 -57 -142.5 t-143 -60.5q-63 -2 -66 -65q-2 -61 66 -64q121 -2 206 -86t85 -204q0 -123 -84 -206t-207 -85q-121 -2 -205 81t-86 206q-2 63 -66 65q-63 3 -63 -63z" />
<glyph unicode="4" horiz-adv-x="1085" d="M82 410q0 10 6 28l322 881q16 43 59 43q57 0 66 -66q0 -10 -5 -22l-290 -801h317v303q0 63 64 66q66 2 65 -66v-303h252q63 0 66 -63q2 -66 -66 -66h-252v-291q0 -61 -65 -63q-63 -2 -64 63v291h-410q-63 0 -65 66z" />
<glyph unicode="5" horiz-adv-x="1042" d="M82 264q0 -14 6 -31q133 -242 410 -243q193 -2 328 134t135 329q0 195 -134.5 328.5t-328.5 133.5q-137 0 -252 -73v391h549q63 0 65 65q2 63 -63 64h-615q-66 0 -65 -64v-602q0 -63 65 -65q31 0 51 24q100 129 265 131q135 2 234 -96t99 -237q0 -141 -96 -236.5 t-237 -97.5q-199 -2 -293 174q-20 37 -58 37q-27 0 -46 -19.5t-19 -46.5z" />
<glyph unicode="6" horiz-adv-x="1089" d="M82 453q0 125 76 254l364 622q18 31 56 33q57 2 65 -64q0 -20 -10 -32l-213 -367q63 16 125 16q193 2 328 -134t135 -328q0 -195 -134.5 -329t-328.5 -134q-195 0 -329 134t-134 329zM211 453q-2 -141 94 -236.5t240 -97.5q139 -2 236.5 96t97.5 238q0 139 -97.5 236 t-236.5 97q-141 0 -236.5 -96t-97.5 -237z" />
<glyph unicode="7" horiz-adv-x="1007" d="M82 1298q-2 63 65 64h713q63 0 66 -68q0 -12 -4 -20l-453 -1241q-16 -43 -61 -43q-63 0 -64 65q0 12 4 23l422 1155h-625q-61 -1 -63 65z" />
<glyph unicode="8" horiz-adv-x="1003" d="M82 410q0 113 57.5 211t153.5 153q-119 98 -121 258q-2 135 96.5 232.5t233.5 97.5t233.5 -97.5t98.5 -232.5q0 -156 -123 -258q209 -121 211 -364q2 -174 -122 -297t-298 -123q-176 0 -298 122t-122 298zM211 410q-2 -123 82 -206t209 -85q121 -2 206 84t85 207 q0 119 -86 204.5t-205 85.5q-123 0 -206 -83.5t-85 -206.5zM301 1032q-2 -86 56.5 -143.5t144.5 -59.5q84 -2 142 58.5t61 144.5q2 84 -58.5 141.5t-144.5 59.5t-141.5 -57.5t-59.5 -143.5z" />
<glyph unicode="9" horiz-adv-x="1089" d="M82 899q0 195 134 329t329 134t329 -134t134 -329q0 -127 -74 -252l-367 -624q-18 -31 -55 -33q-57 -2 -66 63q0 20 11 33l213 367q-63 -16 -125 -17q-193 -2 -328 134t-135 329zM211 899q-2 -141 94 -236.5t240 -97.5q139 -2 236.5 96.5t97.5 237.5t-97.5 236.5 t-236.5 97.5q-141 0 -236.5 -96.5t-97.5 -237.5z" />
<glyph unicode=":" horiz-adv-x="348" d="M82 92q-2 39 25.5 64.5t66.5 27.5t64.5 -25.5t27.5 -66.5t-25.5 -64.5t-66.5 -27.5t-64.5 25.5t-27.5 66.5zM82 868q-2 35 25.5 62.5t66.5 30.5q37 2 63.5 -27t28.5 -66q2 -39 -25.5 -64.5t-66.5 -27.5t-64.5 25.5t-27.5 66.5z" />
<glyph unicode=";" horiz-adv-x="348" d="M82 92q0 88 92 92q39 2 64.5 -25.5t27.5 -66.5q2 -66 -56 -146.5t-122 -105.5v33q35 14 57.5 51t22.5 76q-39 0 -62.5 26.5t-23.5 65.5zM82 868q-2 35 25.5 62.5t66.5 30.5q37 2 63.5 -27t28.5 -66q2 -39 -25.5 -64.5t-66.5 -27.5t-64.5 25.5t-27.5 66.5z" />
<glyph unicode="&#x3c;" horiz-adv-x="1103" d="M82 512q0 41 37 57l811 379q12 6 28 6q55 0 64 -63q0 -37 -37 -60l-686 -319l686 -322q37 -16 37 -57q0 -57 -64 -65q-10 0 -28 6l-811 379q-37 16 -37 59z" />
<glyph unicode="=" d="M82 258q-2 66 65 66h895q61 0 64 -64q2 -66 -64 -65h-895q-63 0 -65 63zM82 752q-2 63 65 63h895q61 0 64 -63q2 -66 -64 -66h-895q-63 0 -65 66z" />
<glyph unicode="&#x3e;" horiz-adv-x="1103" d="M82 133q0 -63 63 -63q10 0 29 6l811 377q37 16 37 59q0 39 -37 59l-811 377q-12 6 -29 6q-25 0 -44 -19.5t-19 -43.5q0 -37 37 -60l686 -319l-686 -319q-37 -17 -37 -60z" />
<glyph unicode="?" horiz-adv-x="933" d="M82 1024q0 -63 65 -66q51 -2 66 66q16 84 96 151.5t172 67.5q109 0 174.5 -57.5t67.5 -161.5q2 -61 -43 -115l-131 -131q-92 -92 -115 -164q-18 -57 -18 -223q0 -61 63 -63t64 63q2 152 26 203q20 43 111 131q102 100 131 145q39 61 41 154q2 162 -107 256 q-100 90 -264 92q-133 2 -253.5 -96t-145.5 -252zM389 92q-2 39 25.5 64.5t66.5 27.5q35 2 62.5 -25.5t29.5 -66.5q2 -37 -26.5 -63.5t-65.5 -28.5q-39 -2 -64.5 25.5t-27.5 66.5z" />
<glyph unicode="@" horiz-adv-x="1640" d="M82 602q-2 319 224 543.5t548 226.5q285 2 489 -174q213 -184 216 -465q2 -252 -177 -434q-152 -156 -313 -158q-121 -2 -127 111l-4 -2q-100 -106 -250 -109q-131 -2 -216 96.5t-85 231.5q0 217 125 379q137 174 348 176q164 2 236 -150l24 74q8 59 74 53q59 -12 53 -75 q-37 -119 -129 -389q-68 -197 -67 -224q0 -49 63 -51q125 -2 225 170q88 150 88 285q0 240 -170 385q-160 139 -403 141q-274 2 -458.5 -182t-184.5 -459q0 -274 188.5 -460.5t462.5 -188.5q238 -2 418 158q20 18 45 18q55 0 64 -63q0 -23 -19 -46q-217 -197 -506 -196 q-330 0 -555 223t-227 555zM516 473q-2 -84 45 -143.5t129 -59.5q123 0 238 164q106 152 108 289q0 59 -59 115.5t-119 56.5q-156 2 -254 -137q-86 -121 -88 -285z" />
<glyph unicode="A" horiz-adv-x="1456" d="M82 66q0 14 6 26l578 1235q6 25 34 39q12 6 25.5 6t28.5 -6q23 -10 34 -37l580 -1237q6 -12 6 -26q0 -27 -19.5 -46.5t-45.5 -19.5q-41 0 -60 39l-227 487h-588l-229 -489q-16 -37 -58 -37q-23 0 -44 18.5t-21 47.5zM494 655h467l-234 500z" />
<glyph unicode="B" horiz-adv-x="1153" d="M82 66v1243q0 57 65 63h494q147 0 248 -101q102 -103 102 -254q0 -162 -127 -267q94 -51 150.5 -147.5t56.5 -203.5q0 -166 -116.5 -282.5t-282.5 -116.5h-525q-65 0 -65 66zM211 129h461q113 0 191.5 79t78.5 191q0 111 -80 191t-190 80h-461v-541zM211 799h430 q92 0 156 65q66 68 65 163q0 87 -64 151q-67 66 -157 65h-430v-444z" />
<glyph unicode="C" horiz-adv-x="1402" d="M61 680q0 -283 199 -479q201 -199 488 -201h8q163 0 308 76q148 78 245 215q12 18 12 39q0 55 -66 63q-29 0 -53 -26q-166 -236 -454 -238h-6q-232 0 -390 160q-160 162 -162 397v6q0 230 161 388q163 161 397 163h4q285 0 452 -237q18 -27 53 -29q25 -2 43.5 19.5 t20.5 45.5q0 20 -12 39q-88 131 -239.5 211t-321.5 80q-287 0 -486 -200q-201 -202 -201 -492z" />
<glyph unicode="D" horiz-adv-x="1294" d="M82 66q0 -66 65 -66h379q287 0 486 200q201 202 200 492q0 283 -198 480q-201 200 -488 200h-379q-27 0 -46 -18.5t-19 -44.5v-1243zM211 129v1114h315q231 0 394 -163q164 -165 163 -400q0 -226 -161 -387q-164 -164 -396 -164h-315z" />
<glyph unicode="E" horiz-adv-x="964" d="M82 66v1243q0 57 65 63h672q64 0 64 -67q0 -62 -64 -62h-608v-444h608q64 0 64 -68q0 -62 -64 -61h-608v-541h608q64 0 64 -67q0 -62 -64 -62h-672q-65 0 -65 66z" />
<glyph unicode="F" horiz-adv-x="923" d="M82 66q0 -63 65 -66h4q60 0 60 63v607h506q64 0 63 69q0 60 -63 60h-506v444h608q64 0 64 69q0 60 -64 60h-672q-27 0 -46 -18.5t-19 -44.5v-1243z" />
<glyph unicode="G" horiz-adv-x="1404" d="M61 692q0 283 199 479q201 199 488 201h8q161 0 307 -76q150 -78 246 -215q12 -18 12 -39q0 -57 -64 -65q-33 0 -53 29q-166 236 -456 237h-6q-230 0 -389 -161q-161 -163 -163 -396v-6q0 -232 160 -389q162 -160 398 -162h4q271 0 442 223v271h-446q-63 0 -66 65v4 q0 60 66 60h509q57 0 66 -66v-377q-215 -307 -575 -309h-6q-283 0 -480 199q-201 203 -201 493z" />
<glyph unicode="H" horiz-adv-x="1069" d="M82 66v1241q0 63 63 65h4q62 0 62 -65v-508h647v508q0 63 64 65h3q62 0 62 -65v-1241q0 -63 -65 -66h-4q-60 0 -60 66v604h-647v-604q0 -63 -64 -66h-3q-62 0 -62 66z" />
<glyph unicode="I" horiz-adv-x="804" d="M82 69q0 60 63 60h193v1114h-191q-63 0 -65 66v3q0 60 63 60h514q61 0 64 -63v-4q0 -62 -64 -62h-192v-1114h192q61 0 64 -63v-4q0 -62 -64 -62h-512q-65 0 -65 69z" />
<glyph unicode="J" horiz-adv-x="1089" d="M82 336q0 61 63 61t66 -63q2 -90 60.5 -146.5t146.5 -58.5h5q81 0 139 59q60 61 61 146v909h-193q-64 0 -63 69q0 60 63 60h514q64 0 64 -67q0 -62 -64 -62h-192v-909q0 -137 -98.5 -235.5t-235.5 -98.5q-141 0 -238.5 98.5t-97.5 237.5z" />
<glyph unicode="K" horiz-adv-x="1032" d="M82 66v1241q0 63 63 65h4q62 0 62 -65v-465l594 514q14 12 41 16q57 0 65 -65q0 -29 -22 -50l-545 -471l610 -677q12 -14 17 -46q0 -25 -19.5 -44t-44.5 -19q-31 0 -49 20l-610 682l-37 -32v-604q0 -63 -64 -66h-3q-62 0 -62 66z" />
<glyph unicode="L" horiz-adv-x="942" d="M82 66v1241q0 63 63 65h4q62 0 62 -65v-1178h584q66 0 65 -67q0 -62 -63 -62h-652q-27 0 -45 19.5t-18 46.5z" />
<glyph unicode="M" horiz-adv-x="1394" d="M82 63v1244q0 63 63 65q29 0 52 -24l508 -723l491 723q23 25 51 24q66 0 66 -63v-1243q0 -63 -66 -66h-4q-60 0 -59 63v1063l-430 -643q-16 -25 -49 -24q-29 0 -52 24l-442 643v-1063q0 -61 -64 -63h-3q-62 -1 -62 63z" />
<glyph unicode="N" horiz-adv-x="1069" d="M82 66v1241q0 63 63 65h4q32 0 52 -31l655 -1048v1014q0 63 66 65h4q62 0 61 -63v-1243q0 -63 -65 -66q-33 0 -74 66l-637 1017v-1017q0 -63 -64 -66h-3q-62 0 -62 66z" />
<glyph unicode="O" horiz-adv-x="1495" d="M61 692q0 283 199 479q201 199 488 201h5q283 0 480 -198q199 -201 201 -488v-6q0 -283 -199 -479q-201 -199 -487 -201h-6q-283 0 -480 199q-201 203 -201 493zM190 680q0 -232 160 -389q162 -160 398 -162h5q230 0 389 161q161 163 163 396v6q0 228 -162 387 q-164 162 -395 164h-6q-230 0 -389 -161q-163 -165 -163 -402z" />
<glyph unicode="P" horiz-adv-x="1085" d="M82 66v1243q0 57 65 63h435q174 0 297 -124q125 -126 125 -303q0 -172 -122 -295q-124 -124 -300 -124h-371v-463q0 -61 -64 -63h-3q-62 0 -62 66zM211 655h371q123 0 207.5 86t84.5 209q0 121 -86 207t-206 86h-371v-588z" />
<glyph unicode="Q" horiz-adv-x="1495" d="M61 692q0 283 199 479q201 199 488 201h5q283 0 480 -198q199 -201 201 -488v-6q0 -242 -160 -434l137 -135q18 -18 19 -48q0 -25 -19.5 -44t-44.5 -19q-23 0 -47 18l-137 138q-188 -154 -434 -156h-6q-283 0 -480 199q-201 203 -201 493zM190 680q0 -232 160 -389 q162 -160 398 -162h6q187 0 338 119l-203 203q-16 18 -21 45q0 57 66 65q25 0 45 -20l203 -203q123 154 123 348q0 231 -163 393t-394 164h-6q-230 0 -389 -161q-163 -165 -163 -402z" />
<glyph unicode="R" horiz-adv-x="1093" d="M82 66v1243q0 57 65 63h435q174 0 297 -124q125 -126 125 -305q0 -116 -62 -215q-63 -101 -172 -157l274 -475q4 -8 9 -33q0 -25 -19.5 -44t-44.5 -19q-39 0 -57 33l-287 497q-20 0 -63 -4h-371v-463q0 -61 -64 -63h-3q-62 0 -62 66zM211 655h371q123 0 207.5 86 t84.5 209q0 121 -86 207t-206 86h-371v-588z" />
<glyph unicode="S" horiz-adv-x="1036" d="M43 336q-2 8 -2 15q0 22 14 39q18 24 49 28q57 0 64 -49q14 -104 113.5 -172t234.5 -68q133 0 234 70q117 79 116 209q0 122 -114 200q-104 70 -236 70q-172 0 -301 86q-150 100 -149 266q0 157 151 254q131 86 299 88h8q157 0 281 -82q143 -92 160 -243 q0 -23 -18.5 -44.5t-47.5 -23.5q-55 0 -65 63q-14 88 -125 148q-94 53 -193 53q-102 0 -203 -57q-119 -67 -118 -163q0 -92 116 -159q102 -57 205 -57q184 0 326 -109q154 -117 153 -295q0 -180 -153 -297q-139 -106 -326 -106q-168 0 -299 86q-141 92 -174 250z" />
<glyph unicode="T" horiz-adv-x="1067" d="M82 1312q0 60 63 60h777q61 0 63 -63v-4q0 -62 -63 -62h-324v-1177q0 -63 -63 -66h-4q-62 0 -62 66v1177h-322q-65 0 -65 69z" />
<glyph unicode="U" d="M82 512v797q0 61 65 63h4q60 0 60 -63v-797q0 -160 111.5 -270.5t271.5 -112.5h5q154 0 265 112q113 114 113 271v795q0 63 65 65h4q60 0 60 -63v-1243q0 -63 -64 -66h-3q-62 0 -62 66v108q-147 -172 -383 -174h-6q-209 0 -357 148q-149 151 -149 364z" />
<glyph unicode="V" horiz-adv-x="1116" d="M41 1309q0 57 65 63q43 0 60 -43l391 -1075l393 1075q16 43 60 43q57 0 65 -63q0 -14 -4 -23l-453 -1243q-16 -43 -61 -43t-61 43l-451 1243q0 7 -4 23z" />
<glyph unicode="W" horiz-adv-x="1685" d="M82 1309q0 57 65 63q49 0 62 -47l285 -1073l290 625q16 37 54 36q43 0 63 -36l289 -625l287 1073q12 45 61 47h3q54 0 63 -63q0 -10 -2 -19l-334 -1243q-12 -45 -60 -47h-4q-40 0 -57 37l-305 659l-305 -657q-18 -37 -58 -39h-3q-46 0 -60 49l-332 1241q0 13 -2 19z" />
<glyph unicode="X" horiz-adv-x="1177" d="M61 63q0 18 13 37l434 623l-379 543q-12 18 -12 37q0 59 63 65q33 0 53 -29l353 -503l358 510q18 27 53 28h4q54 0 62 -65q0 -18 -12 -37l-385 -549l440 -629q6 -8 10 -37q0 -57 -63 -65q-33 0 -54 28l-413 590l-408 -583q-16 -23 -51 -27q-23 0 -44.5 18t-21.5 45z" />
<glyph unicode="Y" horiz-adv-x="1136" d="M41 1307q0 -18 12 -37l455 -649v-555q0 -63 65 -66h4q60 0 60 66v555l448 643q6 8 11 36q0 55 -64 64q-29 0 -53 -27l-408 -583l-413 589q-18 27 -52 29q-27 0 -46 -19t-19 -46z" />
<glyph unicode="Z" horiz-adv-x="1114" d="M82 100q-14 -21 -14 -38q0 -19 16 -34q29 -28 56 -28h3h824q66 0 65 69q0 60 -65 60h-711l745 1143q6 10 11 37q0 55 -60 63h-725q-64 0 -63 -67q0 -62 63 -62h600z" />
<glyph unicode="[" horiz-adv-x="546" d="M82 -346h317q63 0 66 65q2 63 -66 64h-188v1460h188q63 0 66 64q2 66 -66 65h-317v-1718z" />
<glyph unicode="\" horiz-adv-x="698" d="M82 1309q0 57 65 63q47 0 62 -45l403 -1243q2 -6 4 -21q0 -27 -19 -45t-46 -18q-47 0 -62 45l-403 1243q0 7 -4 21z" />
<glyph unicode="]" horiz-adv-x="546" d="M82 -281q-2 63 65 64h189v1460h-189q-63 0 -65 64q-2 66 65 65h318v-1718h-318q-63 -1 -65 65z" />
<glyph unicode="^" horiz-adv-x="1013" d="M82 684q0 18 8 33l361 622q18 31 57 33q35 2 55 -33l361 -622q4 -12 8 -33q0 -57 -64 -66q-39 0 -57 33l-303 529l-305 -529q-18 -31 -56 -33q-27 -2 -46 18.5t-19 47.5z" />
<glyph unicode="_" d="M82 -205q-2 66 65 66h895q61 0 64 -66q2 -63 -64 -63h-895q-63 0 -65 63z" />
<glyph unicode="`" d="M432 1411q0 20 17.5 37.5t37.5 17.5q25 0 41 -16l187 -184q12 -12 16 -41q0 -23 -22 -45q-10 -10 -35 -13q-20 0 -39 19l-186 186q-13 12 -17 39z" />
<glyph unicode="a" horiz-adv-x="1146" d="M41 518q0 211 147 356q150 147 365 150h5q222 0 378 -172v109q0 61 65 63h4q60 0 60 -63v-895q0 -63 -66 -66h-3q-60 0 -60 66v106q-154 -172 -383 -172q-215 0 -363 148q-149 151 -149 370zM170 506q0 -154 111 -263q113 -112 272 -114h6q154 0 263 111q112 113 114 272 v6q0 154 -111 263q-113 112 -272 114h-6q-154 0 -263 -111q-114 -115 -114 -278z" />
<glyph unicode="b" horiz-adv-x="1146" d="M82 66q0 -63 65 -66h4q60 0 60 66v106q154 -172 383 -172q215 0 362 148q150 151 150 370q0 211 -148 356q-150 147 -364 150h-5q-222 0 -378 -172v457q0 61 -66 63h-3q-60 0 -60 -65v-1241zM211 518q0 154 111 263q113 112 272 114h6q154 0 263 -111q112 -113 114 -272 v-6q0 -154 -111 -263q-113 -112 -272 -114h-6q-154 0 -263 111q-114 115 -114 278z" />
<glyph unicode="c" horiz-adv-x="1026" d="M41 518q0 211 147 356q150 147 365 150h5q261 0 415 -217q12 -16 12 -39q0 -27 -19.5 -45t-45.5 -18q-33 0 -54 28q-117 160 -313 162h-6q-154 0 -263 -111q-112 -113 -114 -272v-6q0 -154 111 -263q113 -112 272 -114h5q193 0 308 162q18 27 54 28q2 0 3 1q54 0 62 -66 q0 -18 -12 -37q-150 -215 -420 -217h-6q-211 0 -357 147q-149 152 -149 371z" />
<glyph unicode="d" horiz-adv-x="1146" d="M41 518q0 211 147 356q150 147 365 150h5q222 0 378 -172v457q0 61 65 63h4q60 0 60 -65v-1241q0 -63 -66 -66h-3q-60 0 -60 66v106q-154 -172 -383 -172q-215 0 -363 148q-149 151 -149 370zM170 506q0 -154 111 -263q113 -112 272 -114h6q154 0 263 111 q112 113 114 272v6q0 154 -111 263q-113 112 -272 114h-6q-154 0 -263 -111q-114 -115 -114 -278z" />
<glyph unicode="e" horiz-adv-x="1105" d="M41 518q0 211 147 356q150 147 365 150h6q199 0 344 -138q147 -140 162 -343v-5q0 -24 -19 -40q-22 -18 -49 -19h-825q12 -152 119.5 -250t261.5 -100h9q94 0 191 43q101 45 154 119q16 23 51 26q57 0 66 -65q0 -18 -12 -37q-70 -100 -205 -160q-123 -53 -254 -55h-6 q-209 0 -356 147q-150 152 -150 371zM182 606h742q-31 127 -135.5 207t-235.5 82h-6q-127 0 -229 -80q-103 -82 -136 -209z" />
<glyph unicode="f" horiz-adv-x="688" d="M41 961q0 -66 65 -66h111v-829q0 -66 60 -66h4q66 2 65 66v829h236q66 0 65 66q0 63 -63 63h-238q4 104 67.5 160.5t168.5 58.5q66 2 65 66q-8 64 -62 63h-3q-160 -8 -260.5 -100t-104.5 -248h-111q-65 0 -65 -63z" />
<glyph unicode="g" horiz-adv-x="1146" d="M41 518q0 211 147 356q150 147 365 150h5q222 0 378 -172v106q0 63 63 66h4q62 0 62 -66l-2 -958q0 -215 -148.5 -362.5t-363.5 -149.5h-13q-147 0 -241 45q-104 47 -191 170q-18 27 -18 47q0 27 19.5 45.5t46.5 18.5q31 0 49 -27q70 -100 147 -135q72 -33 201 -35h6 q154 0 263 111q112 113 114 272l2 172q-154 -172 -383 -172q-215 0 -363 148q-149 151 -149 370zM170 506q0 -156 111 -265q113 -112 272 -112q162 0 271.5 110.5t111.5 272.5v6q0 154 -111 263q-113 112 -272 114h-6q-154 0 -263 -111q-114 -115 -114 -278z" />
<glyph unicode="h" horiz-adv-x="1036" d="M82 66v1241q0 63 63 65h4q62 0 62 -65v-410q125 125 307 127h6q175 0 301 -128q129 -130 129 -308v-525q0 -61 -63 -63h-4q-62 0 -62 63v525q0 129 -89 217t-218 90h-5q-123 0 -212 -89q-90 -91 -90 -218v-522q0 -63 -64 -66h-3q-62 0 -62 66z" />
<glyph unicode="i" horiz-adv-x="333" d="M82 66v892q0 66 63 66q66 0 66 -66v-892q0 -66 -64 -66q-65 0 -65 66zM82 1307q0 64 62 63h3q63 -2 64 -65q0 -62 -62 -62h-4q-63 3 -63 64z" />
<glyph unicode="j" horiz-adv-x="333" d="M-109 -346q0 27 20.5 46t49.5 19q94 0 113 84q8 33 8 263v892q0 66 63 66q66 0 66 -66v-892q0 -293 -31 -367q-47 -109 -223 -109q-66 1 -66 64zM82 1307q0 64 62 63h3q63 -2 64 -65q0 -62 -62 -62h-4q-63 3 -63 64z" />
<glyph unicode="k" horiz-adv-x="837" d="M82 66v1241q0 66 63 65q66 0 66 -63v-746l438 381q18 16 43 17q25 0 44.5 -19.5t19.5 -44.5q0 -29 -23 -47l-319 -277l329 -473q12 -16 13 -39q0 -25 -17.5 -44t-44.5 -19q-33 0 -53 31l-324 460l-106 -94v-329q0 -66 -64 -66q-65 0 -65 66z" />
<glyph unicode="l" horiz-adv-x="333" d="M82 66v1241q0 66 63 65q66 0 66 -63v-1243q0 -66 -64 -66q-65 0 -65 66z" />
<glyph unicode="m" horiz-adv-x="1652" d="M82 66v892q0 63 63 66h4q62 0 62 -66v-43q117 106 276 109h5q216 0 335 -184q121 184 340 184q168 0 286 -118t118 -285v-555q0 -63 -62 -66h-4q-64 0 -63 66v555q0 115 -81 194.5t-196 79.5t-193.5 -80t-78.5 -194l-2 -555q0 -63 -64 -66h-3q-62 0 -62 66v555 q0 115 -81 194.5t-196 79.5t-194.5 -80t-79.5 -194v-555q0 -63 -64 -66h-3q-62 0 -62 66z" />
<glyph unicode="n" horiz-adv-x="1036" d="M82 66v892q0 63 63 66h4q62 0 62 -66v-61q125 125 307 127h6q175 0 301 -128q129 -130 129 -308v-525q0 -61 -63 -63h-4q-62 0 -62 63v525q0 129 -89 217t-218 90h-5q-123 0 -212 -89q-90 -91 -90 -218v-522q0 -63 -64 -66h-3q-62 0 -62 66z" />
<glyph unicode="o" horiz-adv-x="1105" d="M41 518q0 211 147 356q150 147 365 150h6q211 0 356 -147q147 -150 150 -365v-6q0 -211 -147 -356q-150 -147 -365 -150h-6q-211 0 -357 147q-149 152 -149 371zM170 506q0 -154 111 -263q113 -112 272 -114h6q154 0 263 111q112 113 114 272v6q0 154 -111 263 q-113 112 -272 114h-6q-154 0 -263 -111q-114 -115 -114 -278z" />
<glyph unicode="p" horiz-adv-x="1146" d="M82 -344v1302q0 63 63 66h4q62 0 62 -66v-106q154 172 383 172q215 0 362 -148q150 -151 150 -370q0 -211 -148 -356q-150 -147 -364 -150h-5q-222 0 -378 172v-516q0 -63 -66 -66h-3q-60 0 -60 66zM211 506q0 -154 111 -263q113 -112 272 -114h6q154 0 263 111 q112 113 114 272v6q0 154 -111 263q-113 112 -272 114h-6q-154 0 -263 -111q-114 -115 -114 -278z" />
<glyph unicode="q" horiz-adv-x="1148" d="M41 518q0 211 147 356q150 147 365 150h5q222 0 378 -172v106q0 63 63 66h4q62 0 62 -66v-1148l55 57q18 18 47 18q57 0 64 -63q0 -23 -19 -47l-165 -166q-18 -18 -48 -19q-57 0 -63 64v518q-154 -172 -383 -172q-215 0 -363 148q-149 151 -149 370zM170 506 q0 -154 111 -263q113 -112 272 -114h6q154 0 263 111q112 113 114 272v6q0 154 -111 263q-113 112 -272 114h-6q-154 0 -263 -111q-114 -115 -114 -278z" />
<glyph unicode="r" horiz-adv-x="702" d="M82 66v892q0 63 63 66h4q62 0 62 -66v-61q125 125 307 127q39 0 78 -6q66 -11 66 -71t-66 -62q-39 10 -78 10h-5q-123 0 -212 -89q-90 -91 -90 -218v-522q0 -63 -64 -66h-3q-62 0 -62 66z" />
<glyph unicode="s" horiz-adv-x="847" d="M82 233q0 57 65 64q37 0 60 -39q37 -57 55 -72q72 -57 166 -57q84 0 152 45q78 51 77 133q0 77 -77 125q-68 43 -152 45q-129 2 -227 72q-111 81 -111 207q0 120 111 196q98 70 227 72h6q199 0 295 -145q12 -18 12 -43q0 -27 -19.5 -45.5t-45.5 -18.5q-35 0 -49 27 q-51 94 -199 96q-76 0 -137 -33q-72 -43 -72 -112q0 -70 74 -111q59 -31 135 -33q143 -2 246 -80q113 -86 112 -223q0 -137 -112 -223q-104 -78 -246 -80h-7q-99 0 -195 58q-99 60 -140 151q0 4 -1 12t-3 12z" />
<glyph unicode="t" horiz-adv-x="702" d="M51 961q0 63 66 63h125v283q0 66 65 65q63 0 64 -65v-283h190q66 0 66 -66q0 -63 -66 -63h-190v-416q0 -231 6 -264q18 -86 115 -86q27 0 48 -19.5t21 -46.5q0 -63 -65 -63q-178 0 -224 109q-31 74 -30 366v420h-125q-66 0 -66 66z" />
<glyph unicode="u" horiz-adv-x="1036" d="M82 436v522q0 63 63 66h4q62 0 62 -66v-522q0 -129 89 -217t218 -90h6q123 0 211 89q90 91 90 218v522q0 63 64 66h4q62 0 61 -66v-892q0 -63 -65 -66h-4q-60 0 -60 66v61q-125 -125 -307 -127h-6q-179 0 -303 126q-127 128 -127 310z" />
<glyph unicode="v" horiz-adv-x="1087" d="M61 963q0 61 64 61q41 0 57 -37l361 -774l362 772q18 37 56 37q63 0 63 -61q0 -14 -6 -29l-412 -889q-20 -45 -61 -45t-60 39l-417 897q-7 15 -7 29z" />
<glyph unicode="w" horiz-adv-x="1486" d="M61 963q0 -10 5 -23l307 -897q15 -45 61 -45h8q37 6 54 45l247 727l250 -727q21 -43 63 -43h7q37 2 51 43l307 895q4 12 4 23q0 63 -65 63q-45 0 -60 -43l-247 -723l-248 723q-2 14 -41 41q-10 4 -23 4q-45 0 -59 -45l-248 -723l-250 723q-16 45 -61 45q-62 0 -62 -63z " />
<glyph unicode="x" horiz-adv-x="923" d="M61 63q0 20 13 37l311 443l-268 383q-12 16 -13 37q0 25 19.5 43t44.5 18q35 0 53 -27l240 -344l241 344q20 29 54 29q63 0 63 -63q0 -20 -12 -39l-268 -381l311 -443q12 -16 12 -37q0 -25 -18.5 -44t-44.5 -19q-33 0 -54 29l-284 403l-283 -405q-18 -27 -51 -27 q-27 0 -46.5 18t-19.5 45z" />
<glyph unicode="y" horiz-adv-x="1036" d="M82 434q0 -180 127 -308t309 -130q180 0 307 127v-199q0 -127 -90 -218t-215 -91q-221 0 -307 172q-16 33 -55 33q-59 0 -60 -62q0 -20 11 -41q121 -229 411 -229q180 0 307 128t127 308v1032q0 66 -63 66q-66 0 -66 -66v-524q0 -127 -90 -217t-217 -90t-217 90t-90 217 v524q0 66 -64 66q-66 0 -65 -66v-522z" />
<glyph unicode="z" horiz-adv-x="919" d="M82 61q0 29 18 48l553 788h-473q-66 0 -65 61q0 66 63 66l590 -2q18 4 41 -6q29 -15 29 -51q0 -22 -17 -47l-553 -791h502q66 0 66 -64q0 -63 -66 -63h-616q-5 -1 -10 -1q-17 0 -33 11l-2 2q-27 20 -27 49z" />
<glyph unicode="{" horiz-adv-x="647" d="M82 479q84 0 131 -96q35 -76 35 -170v-295q0 -119 65 -194q59 -70 144 -70h45q61 0 63 65q2 61 -63 66l-31 -2q-94 -6 -94 168v295q0 154 -70 237q-33 39 -78 56v4q49 12 90 71q57 82 58 215v246q0 168 94 168h31q61 0 63 64q2 66 -63 65h-45q-98 0 -156 -86 q-53 -76 -53 -178v-246q0 -94 -37 -168q-45 -92 -129 -92v-123z" />
<glyph unicode="|" horiz-adv-x="292" d="M82 66v1241q0 63 65 65q63 2 64 -63v-1243q0 -63 -64 -66q-65 -2 -65 66z" />
<glyph unicode="}" horiz-adv-x="647" d="M82 -281q-2 61 63 66l31 -2q94 -6 94 168v295q0 94 31 170q41 96 117 123v4q-74 20 -115 119q-33 80 -33 167v246q0 168 -94 168h-31q-61 0 -63 64q-2 66 63 65h45q82 0 145.5 -72.5t63.5 -191.5v-246q0 -94 37 -168q45 -92 129 -92v-123q-84 0 -131 -96 q-35 -76 -35 -170v-295q0 -100 -53 -178q-59 -86 -156 -86h-45q-61 -1 -63 65z" />
<glyph unicode="~" horiz-adv-x="1087" d="M82 483q0 -27 19.5 -45t45.5 -18q29 0 50 22q49 86 120 88q80 2 236 -84q125 -68 209 -69q125 -2 227 137q14 14 17 41q0 55 -66 63q-33 0 -49 -22q-63 -88 -131 -90q-10 0 -205 88q-141 63 -227 65q-139 2 -232 -133q-10 -16 -14 -43z" />
<glyph unicode="&#xa1;" horiz-adv-x="348" d="M82 932q-2 39 25.5 64.5t66.5 27.5t64.5 -25.5t27.5 -66.5t-25.5 -64.5t-66.5 -27.5t-64.5 25.5t-27.5 66.5zM109 -283l2 969q0 61 63 64q63 2 64 -64v-969q0 -63 -64 -65q-65 -3 -65 65z" />
<glyph unicode="&#xa2;" horiz-adv-x="1107" d="M82 512q0 195 127 337t321 171v61q0 63 64 66q66 2 65 -66v-61q221 -29 355 -213q12 -16 12 -39q0 -27 -19.5 -45t-45.5 -18q-33 0 -54 28q-94 129 -248 156v-754q156 25 248 156q18 27 54 28q57 2 65 -65q0 -18 -12 -37q-127 -182 -357 -213v-63q0 -61 -63 -64 q-63 -2 -64 64v63q-193 25 -320.5 169t-127.5 339zM211 512q-2 -141 88 -246.5t231 -130.5v754q-141 -23 -229 -128.5t-90 -248.5z" />
<glyph unicode="&#xa3;" horiz-adv-x="1044" d="M82 129l88 -125q115 70 211 72q63 2 189 -37t188 -39q92 0 168 47q37 18 37 59q0 55 -64 64q-10 0 -29 -6q-53 -33 -106 -35q-39 -2 -129 27q-109 35 -139 39q-121 18 -170 -2q147 160 147 311q0 80 -29 131h279q61 0 63 63q2 66 -63 66h-346q-86 158 -86 242 q0 100 33 147q61 88 239 90q231 2 256 -217q6 -61 66 -63q61 -2 65 63q-14 160 -119.5 253t-267.5 93q-399 2 -401 -368q0 -80 76 -240h-93q-61 0 -63 -66q-2 -63 63 -63h162q33 -80 35 -115q2 -61 -59 -172q-76 -135 -201 -219z" />
<glyph unicode="&#xa4;" d="M82 686q0 174 106 313l-63 64q-18 18 -19 45q0 59 64 66q27 0 47 -21l64 -63q135 106 313 108q168 2 311 -104l60 59q18 18 47 21q55 0 63 -66q0 -27 -18 -45l-60 -62q106 -135 109 -315q2 -176 -109 -313l60 -60q18 -18 18 -45q0 -57 -63 -65q-27 0 -47 20l-58 58 q-139 -104 -313 -107q-178 -2 -315 109l-62 -60q-18 -18 -47 -20q-27 0 -45.5 19.5t-18.5 45.5q0 27 19 45l61 62q-104 135 -104 311zM211 686q-2 -158 110.5 -269.5t272.5 -113.5q158 -2 269.5 110.5t113.5 272.5q2 158 -110.5 269.5t-272.5 113.5q-158 2 -269.5 -110.5 t-113.5 -272.5z" />
<glyph unicode="&#xa5;" horiz-adv-x="1218" d="M82 1307q0 59 65 65q31 0 52 -29l413 -589l408 583q16 25 53 27q23 2 42.5 -18.5t21.5 -45.5q0 -23 -11 -36l-356 -510h225q63 0 66 -64q2 -66 -66 -65h-315l-2 -4v-74h317q63 0 66 -66q2 -63 -66 -63h-317l-2 -352q0 -63 -64 -66q-66 -2 -65 66v352h-318q-61 0 -63 63 q-2 66 63 66h320v74l-4 4h-316q-61 0 -63 65q-2 63 63 64h226l-361 516q-12 19 -12 37z" />
<glyph unicode="&#xa6;" horiz-adv-x="292" d="M82 66v434q0 63 63 65q66 2 66 -65v-434q0 -63 -66 -66q-63 -2 -63 66zM82 872v435q0 63 63 65q66 2 66 -65v-435q0 -63 -66 -65q-63 -3 -63 65z" />
<glyph unicode="&#xa7;" horiz-adv-x="1009" d="M82 606q0 160 180 295q-51 59 -67 82q-20 39 -21 86q-2 135 96 221q92 80 232 82q156 2 242.5 -85t89.5 -245q0 -61 -64 -63q-61 -2 -65 63q-6 96 -37 140q-43 61 -166 61q-86 0 -140 -43q-59 -47 -59 -131q0 -45 53 -78q37 -20 111 -63l264 -156q197 -117 197 -289 q0 -178 -170 -297q76 -61 78 -166q2 -137 -93.5 -219t-234.5 -84q-156 -2 -243 85t-89 245q0 61 64 64q61 2 65 -64q6 -96 37 -139q43 -61 166 -62q86 0 142.5 45.5t56.5 128.5q0 41 -52 78q-37 20 -112 64l-264 155q-197 117 -197 289zM211 606q-2 -61 43 -110 q25 -27 88 -66l303 -178q154 117 154 231q0 63 -43 111q-27 29 -88 65l-303 181q-61 -39 -105 -101q-47 -67 -49 -133z" />
<glyph unicode="&#xa8;" horiz-adv-x="1685" d="M82 1309q0 57 65 63q49 0 62 -47l285 -1073l290 625q16 37 54 36q43 0 63 -36l289 -625l287 1073q12 45 61 47q57 2 66 -63q0 -10 -2 -19l-334 -1243q-12 -45 -60 -47q-43 -2 -61 37l-305 659l-305 -657q-18 -37 -58 -39q-49 -2 -63 49l-332 1241q0 13 -2 19zM686 1716 q0 23 16.5 37t38.5 19q25 0 41 -17l187 -184q12 -12 16 -39q0 -23 -22 -45q-10 -10 -35 -12q-23 0 -39 16l-187 188q-12 10 -16 37z" />
<glyph unicode="&#xa9;" horiz-adv-x="1536" d="M82 686q-2 287 198.5 485.5t487.5 200.5t485.5 -198.5t200.5 -487.5t-198.5 -485.5t-487.5 -200.5t-485.5 198.5t-200.5 487.5zM211 686q-2 -236 159.5 -395.5t397.5 -161.5q233 -2 394 161t163 396q2 231 -162 393t-395 164q-233 2 -394 -161t-163 -396zM322 686 q-2 -184 129 -314t317 -132q227 -2 365 190q12 16 12 37q0 57 -66 65q-31 0 -51 -28q-94 -135 -260 -135q-152 0 -233.5 83t-83.5 234q-2 150 82.5 232.5t234.5 85.5q160 2 260 -136q16 -23 51 -26q59 0 66 63q0 18 -12 37q-131 190 -365 191q-186 0 -315 -130.5 t-131 -316.5z" />
<glyph unicode="&#xaa;" horiz-adv-x="1685" d="M82 1309q0 57 65 63q49 0 62 -47l285 -1073l290 625q16 37 54 36q43 0 63 -36l289 -625l287 1073q12 45 61 47q57 2 66 -63q0 -10 -2 -19l-334 -1243q-12 -45 -60 -47q-43 -2 -61 37l-305 659l-305 -657q-18 -37 -58 -39q-49 -2 -63 49l-332 1241q0 13 -2 19zM700 1532 q0 -23 16.5 -38t39.5 -19q25 0 41 16l186 188q12 14 16 39q0 18 -16 37t-41 19q-23 0 -39 -17l-186 -186q-13 -12 -17 -39z" />
<glyph unicode="&#xab;" horiz-adv-x="1026" d="M82 512q0 37 31 55l350 291q16 12 41 16q55 0 63 -65q0 -31 -22 -49l-297 -248l297 -248q18 -16 22 -49q0 -57 -63 -65q-20 0 -41 16l-350 291q-31 18 -31 55zM459 512q0 37 30 55l351 291q16 12 41 16q55 0 63 -65q0 -31 -22 -49l-297 -248l297 -248q18 -16 22 -49 q0 -57 -63 -65q-20 0 -41 16l-351 291q-30 18 -30 55z" />
<glyph unicode="&#xac;" horiz-adv-x="1136" d="M41 1307q0 -18 12 -37l455 -649v-555q0 -63 65 -66q63 -2 64 66v555l448 643q6 8 11 36q0 55 -64 64q-29 0 -53 -27l-408 -583l-413 589q-18 27 -52 29q-27 0 -46 -19t-19 -46zM442 1716q0 23 16.5 37t39.5 19q25 0 41 -17l186 -184q12 -12 16 -39q0 -23 -22 -45 q-10 -10 -35 -12q-23 0 -39 16l-186 188q-13 10 -17 37z" />
<glyph unicode="&#xad;" horiz-adv-x="675" d="M82 512q0 33 16.5 49.5t48.5 16.5l381 -3q63 0 66 -63q0 -33 -16.5 -49.5t-49.5 -16.5l-381 3q-63 0 -65 63z" />
<glyph unicode="&#x2212;" horiz-adv-x="675" d="M82 512q0 33 16.5 49.5t48.5 16.5l381 -3q63 0 66 -63q0 -33 -16.5 -49.5t-49.5 -16.5l-381 3q-63 0 -65 63z" />
<glyph unicode="&#xae;" horiz-adv-x="1536" d="M82 686q-2 287 198.5 485.5t487.5 200.5t485.5 -198.5t200.5 -487.5t-198.5 -485.5t-487.5 -200.5t-485.5 198.5t-200.5 487.5zM211 686q-2 -236 159.5 -395.5t397.5 -161.5q233 -2 394 161t163 396q2 231 -162 393t-395 164q-233 2 -394 -161t-163 -396zM451 305v764 q0 57 63 64h309q109 0 182.5 -75t75.5 -184q2 -156 -141 -229l176 -309q6 -8 10 -33q0 -27 -19.5 -45t-45.5 -18q-37 0 -55 32l-201 349q-41 -4 -66 -5h-157l-2 -313q0 -61 -64 -63q-65 -3 -65 65zM580 745h215q156 0 157 129q2 129 -157 130h-215v-259z" />
<glyph unicode="&#xaf;" horiz-adv-x="1136" d="M41 1307q0 -18 12 -37l455 -649v-555q0 -63 65 -66q63 -2 64 66v555l448 643q6 8 11 36q0 55 -64 64q-29 0 -53 -27l-408 -583l-413 589q-18 27 -52 29q-27 0 -46 -19t-19 -46zM377 1573q-2 63 65 65q61 2 64 -65q2 -61 -64 -64q-63 -2 -65 64zM635 1573q-2 63 65 65 q61 2 64 -65q2 -61 -64 -64q-63 -2 -65 64z" />
<glyph unicode="&#x2c9;" horiz-adv-x="1136" d="M41 1307q0 -18 12 -37l455 -649v-555q0 -63 65 -66q63 -2 64 66v555l448 643q6 8 11 36q0 55 -64 64q-29 0 -53 -27l-408 -583l-413 589q-18 27 -52 29q-27 0 -46 -19t-19 -46zM377 1573q-2 63 65 65q61 2 64 -65q2 -61 -64 -64q-63 -2 -65 64zM635 1573q-2 63 65 65 q61 2 64 -65q2 -61 -64 -64q-63 -2 -65 64z" />
<glyph unicode="&#xb0;" horiz-adv-x="761" d="M82 1141q0 127 86 213t213 86t213 -86t86 -213t-86 -213t-213 -86t-213 86t-86 213zM180 1141q-2 -84 58.5 -146.5t142.5 -64.5q80 -2 140.5 63.5t60.5 147.5q0 80 -60.5 144.5t-140.5 66.5q-82 2 -140.5 -63.5t-60.5 -147.5z" />
<glyph unicode="&#xb1;" d="M82 129q-2 66 65 66h895q61 0 64 -66q2 -63 -64 -63h-895q-63 0 -65 63zM82 621q-2 66 65 65h383v275q0 61 64 63q66 2 65 -63v-275h383q61 0 64 -65q2 -63 -64 -64h-383v-274q0 -61 -65 -64q-63 -2 -64 66v272h-383q-63 1 -65 64z" />
<glyph unicode="&#xb2;" horiz-adv-x="706" d="M82 612q0 23 14 41l363 441q12 20 16 55q0 39 -29.5 65.5t-68.5 28.5t-66.5 -26.5t-29.5 -67.5q-2 -63 -64 -66q-61 -2 -63 64q-2 94 63.5 158.5t159.5 66.5t158.5 -64.5t66.5 -160.5q2 -78 -78 -172l-252 -297h287q63 0 66 -66q0 -33 -16.5 -49t-49.5 -16l-414 2 q-61 0 -63 63z" />
<glyph unicode="&#xb3;" horiz-adv-x="667" d="M82 799q-2 -106 71.5 -177t180.5 -73q104 -2 178 72.5t74 179.5q0 143 -127 219q74 59 73 154q0 82 -58 139t-140 59t-139.5 -57.5t-59.5 -140.5q-2 -61 64 -64q63 -2 65 65.5t70 67.5t69 -69q0 -29 -25.5 -61t-51.5 -32q-61 0 -64 -65q-2 -61 64 -64q45 -2 87 -53 t44 -98q2 -51 -35 -86t-88 -37t-86 34t-37 87q-2 63 -66 65q-61 3 -63 -65z" />
<glyph unicode="&#xb4;" d="M459 1225q0 -23 16.5 -38.5t38.5 -19.5q25 0 41 17l186 188q12 14 17 39q0 18 -16.5 36.5t-41.5 18.5q-23 0 -38 -16l-187 -186q-12 -12 -16 -39z" />
<glyph unicode="&#xb5;" horiz-adv-x="1036" d="M82 -215q0 -63 63 -66q66 -2 66 66v342q129 -125 307 -127t307 127v-61q0 -63 64 -66q66 -2 65 66v892q0 63 -65 66q-63 2 -64 -66v-522q0 -129 -89 -217t-218 -90q-127 -2 -217 89t-90 218v522q0 63 -66 66q-63 2 -63 -66v-1173z" />
<glyph unicode="&#x3bc;" horiz-adv-x="1036" d="M82 -215q0 -63 63 -66q66 -2 66 66v342q129 -125 307 -127t307 127v-61q0 -63 64 -66q66 -2 65 66v892q0 63 -65 66q-63 2 -64 -66v-522q0 -129 -89 -217t-218 -90q-127 -2 -217 89t-90 218v522q0 63 -66 66q-63 2 -63 -66v-1173z" />
<glyph unicode="&#xb6;" horiz-adv-x="1026" d="M82 1030q-2 342 416 342h446l-2 -1589q0 -61 -63 -64q-63 -2 -64 64l-2 1460h-215v-1460q0 -61 -66 -64q-63 -2 -63 64v915q-162 0 -268 84q-119 92 -119 248z" />
<glyph unicode="&#xb7;" horiz-adv-x="348" d="M82 604q-2 39 25.5 64.5t66.5 27.5t64.5 -25.5t27.5 -66.5t-25.5 -64.5t-66.5 -27.5t-64.5 25.5t-27.5 66.5z" />
<glyph unicode="&#x2219;" horiz-adv-x="348" d="M82 604q-2 39 25.5 64.5t66.5 27.5t64.5 -25.5t27.5 -66.5t-25.5 -64.5t-66.5 -27.5t-64.5 25.5t-27.5 66.5z" />
<glyph unicode="&#xb8;" horiz-adv-x="1523" d="M61 963q0 -10 5 -23l307 -897q16 -49 69 -45q37 6 54 45l247 727l250 -727q23 -47 70 -43q37 2 51 43l307 895q4 12 4 23q0 63 -65 63q-45 0 -60 -43l-247 -723l-248 723q-2 14 -41 41q-10 4 -23 4q-45 0 -59 -45l-248 -723l-250 723q-16 45 -61 45q-62 0 -62 -63z M627 1411q0 20 17.5 37.5t37.5 17.5q25 0 41 -16l186 -184q12 -12 17 -41q0 -23 -23 -45q-10 -10 -35 -13q-20 0 -39 19l-186 186q-12 12 -16 39z" />
<glyph unicode="&#xb9;" horiz-adv-x="401" d="M82 1214q0 31 22 50l111 94q16 12 41 14q63 0 63 -72v-686q0 -63 -63 -65q-66 -2 -66 65l-2 551q-16 -10 -43 -14q-63 0 -63 63z" />
<glyph unicode="&#xba;" horiz-adv-x="1523" d="M61 963q0 -10 5 -23l307 -897q16 -49 69 -45q37 6 54 45l247 727l250 -727q23 -47 70 -43q37 2 51 43l307 895q4 12 4 23q0 63 -65 63q-45 0 -60 -43l-247 -723l-248 723q-2 14 -41 41q-10 4 -23 4q-45 0 -59 -45l-248 -723l-250 723q-16 45 -61 45q-62 0 -62 -63z M618 1225q0 -23 16.5 -38.5t39.5 -19.5q25 0 41 17l186 188q12 14 17 39q0 18 -16.5 36.5t-41.5 18.5q-23 0 -39 -16l-186 -186q-13 -12 -17 -39z" />
<glyph unicode="&#xbb;" horiz-adv-x="1026" d="M82 215q0 -59 63 -65q27 0 43 16l349 291q31 18 30 55q0 37 -30 55l-349 291q-16 12 -43 16q-27 0 -45 -19t-18 -46q0 -31 22 -49l297 -248l-297 -248q-18 -16 -22 -49zM459 215q0 -59 63 -65q27 0 43 16l348 291q31 18 31 55t-31 55l-348 291q-16 12 -43 16 q-27 0 -45 -19t-18 -46q0 -31 22 -49l297 -248l-297 -248q-18 -16 -22 -49z" />
<glyph unicode="&#xbc;" horiz-adv-x="1036" d="M82 434q0 -180 127 -308t309 -130q180 0 307 127v-199q0 -127 -90 -218t-215 -91q-221 0 -307 172q-16 33 -55 33q-59 0 -60 -62q0 -20 11 -41q121 -229 411 -229q180 0 307 128t127 308v1032q0 66 -63 66q-66 0 -66 -66v-524q0 -127 -90 -217t-217 -90t-217 90t-90 217 v524q0 66 -64 66q-66 0 -65 -66v-522zM383 1411q0 20 17.5 37.5t37.5 17.5q25 0 41 -16l187 -184q12 -12 16 -41q0 -23 -23 -45q-10 -10 -34 -13q-20 0 -39 19l-187 186q-12 12 -16 39z" />
<glyph unicode="&#xbd;" horiz-adv-x="1685" d="M82 1309q0 57 65 63q49 0 62 -47l285 -1073l290 625q16 37 54 36q43 0 63 -36l289 -625l287 1073q12 45 61 47q57 2 66 -63q0 -10 -2 -19l-334 -1243q-12 -45 -60 -47q-43 -2 -61 37l-305 659l-305 -657q-18 -37 -58 -39q-49 -2 -63 49l-332 1241q0 13 -2 19zM657 1575 q-2 61 66 63q61 2 63 -63q2 -63 -63 -66q-64 -2 -66 66zM915 1573q-2 63 64 65q63 2 65 -65q2 -61 -65 -64q-62 -2 -64 64z" />
<glyph unicode="&#xbe;" horiz-adv-x="1523" d="M61 963q0 -10 5 -23l307 -897q16 -49 69 -45q37 6 54 45l247 727l250 -727q23 -47 70 -43q37 2 51 43l307 895q4 12 4 23q0 63 -65 63q-45 0 -60 -43l-247 -723l-248 723q-2 14 -41 41q-10 4 -23 4q-45 0 -59 -45l-248 -723l-250 723q-16 45 -61 45q-62 0 -62 -63z M567 1307q-2 63 64 65q63 2 65 -65q2 -61 -65 -64q-62 -2 -64 64zM825 1307q-2 63 64 65q63 2 65 -65q2 -61 -65 -64q-62 -2 -64 64z" />
<glyph unicode="&#xbf;" horiz-adv-x="933" d="M82 0q-2 -162 106 -256q102 -90 267 -92q111 -2 209 61q90 61 145 162q37 68 43 125q0 63 -64 66q-55 2 -67 -66q-16 -86 -97 -152.5t-169 -66.5q-109 0 -175.5 56.5t-68.5 162.5q-2 61 43 115l131 131q92 92 115 164q18 57 20 223q0 61 -65 63q-63 2 -64 -63 q-2 -152 -25.5 -201t-109.5 -131q-100 -94 -133 -147q-39 -62 -41 -154zM362 932q-2 39 26 64.5t67 27.5q35 2 62.5 -25.5t29.5 -66.5q2 -37 -26.5 -63.5t-65.5 -28.5q-39 -2 -65 25.5t-28 66.5z" />
<glyph unicode="&#xc0;" horiz-adv-x="1456" d="M82 66q0 14 6 26l578 1235q6 25 34 39q25 12 54 0q23 -10 34 -37l580 -1237q6 -12 6 -26q0 -27 -19.5 -46.5t-45.5 -19.5q-41 0 -60 39l-227 487h-588l-229 -489q-16 -37 -58 -37q-23 0 -44 18.5t-21 47.5zM494 655h467l-234 500zM582 1718q0 23 17 39.5t40 16.5t39 -17 l186 -184q12 -12 17 -41q0 -49 -56 -57q-25 0 -41 16l-186 188q-12 14 -16 39z" />
<glyph unicode="&#xc1;" horiz-adv-x="1456" d="M82 66q0 14 6 26l578 1235q6 25 34 39q25 12 54 0q23 -10 34 -37l580 -1237q6 -12 6 -26q0 -27 -19.5 -46.5t-45.5 -19.5q-41 0 -60 39l-227 487h-588l-229 -489q-16 -37 -58 -37q-23 0 -44 18.5t-21 47.5zM494 655h467l-234 500zM582 1532q0 -23 16 -38t39 -19 q25 0 41 16l186 188q12 14 17 39q0 18 -16.5 37t-41.5 19q-23 0 -39 -17l-186 -186q-12 -12 -16 -39z" />
<glyph unicode="&#xc2;" horiz-adv-x="1456" d="M82 66q0 14 6 26l578 1235q6 25 34 39q25 12 54 0q23 -10 34 -37l580 -1237q6 -12 6 -26q0 -27 -19.5 -46.5t-45.5 -19.5q-41 0 -60 39l-227 487h-588l-229 -489q-16 -37 -58 -37q-23 0 -44 18.5t-21 47.5zM487 1532q0 23 17 39l186 186q12 12 39 17q23 0 39 -17 l186 -186q12 -12 17 -39q0 -49 -56 -57q-25 0 -41 16l-145 147l-147 -147q-12 -12 -39 -16q-23 0 -37.5 16t-18.5 41zM494 655h467l-234 500z" />
<glyph unicode="&#xc3;" horiz-adv-x="1456" d="M82 66q0 14 6 26l578 1235q6 25 34 39q25 12 54 0q23 -10 34 -37l580 -1237q6 -12 6 -26q0 -27 -19.5 -46.5t-45.5 -19.5q-41 0 -60 39l-227 487h-588l-229 -489q-16 -37 -58 -37q-23 0 -44 18.5t-21 47.5zM379 1554q0 -18 20.5 -35.5t36.5 -17.5q20 0 39 23q43 68 98 69 q57 2 179 -67q96 -55 157 -56q98 0 185 111q14 18 14 35q0 18 -21 39q-18 14 -34 14q-20 0 -39 -20q-51 -74 -107 -76q-14 0 -55 22q-61 35 -98 52q-115 49 -172 51q-113 2 -187 -109q-16 -17 -16 -35zM494 655h467l-234 500z" />
<glyph unicode="&#xc4;" horiz-adv-x="1456" d="M82 66q0 14 6 26l578 1235q6 25 34 39q25 12 54 0q23 -10 34 -37l580 -1237q6 -12 6 -26q0 -27 -19.5 -46.5t-45.5 -19.5q-41 0 -60 39l-227 487h-588l-229 -489q-16 -37 -58 -37q-23 0 -44 18.5t-21 47.5zM494 655h467l-234 500zM547 1573q-2 63 65 65q61 2 64 -65 q2 -61 -64 -64q-63 -2 -65 64zM805 1573q-2 63 65 65q61 2 64 -65q2 -61 -64 -64q-63 -2 -65 64z" />
<glyph unicode="&#xc5;" horiz-adv-x="1456" d="M82 66q0 14 6 26l578 1235q6 25 34 39q25 12 54 0q23 -10 34 -37l580 -1237q6 -12 6 -26q0 -27 -19.5 -46.5t-45.5 -19.5q-41 0 -60 39l-227 487h-588l-229 -489q-16 -37 -58 -37q-23 0 -44 18.5t-21 47.5zM494 655h467l-234 500zM575 1628q0 66 43.5 109t110.5 45 q63 2 107.5 -44t46.5 -110q2 -66 -43 -109.5t-111 -43.5q-68 0 -111 42.5t-43 110.5zM655 1628q0 -31 20.5 -51.5t53.5 -22.5q68 0 74 74q0 31 -19.5 50.5t-54.5 23.5q-68 0 -74 -74z" />
<glyph unicode="&#xc6;" horiz-adv-x="1716" d="M82 66q0 14 6 26l578 1235q12 45 61 45h842q63 0 65 -63q2 -66 -65 -66h-608v-444h608q63 0 65 -64q2 -66 -65 -65h-608v-541h608q63 0 65 -63q2 -66 -65 -66h-672q-66 0 -66 66v460h-397l-229 -489q-16 -37 -58 -37q-23 0 -44 18.5t-21 47.5zM494 655h337v588h-61z" />
<glyph unicode="&#xc7;" horiz-adv-x="1423" d="M82 686q-2 287 198.5 485.5t487.5 200.5q166 2 315.5 -75.5t245.5 -215.5q12 -18 12 -39q0 -57 -63 -65q-33 0 -53 29q-166 236 -457 237q-233 2 -394 -160.5t-163 -396.5q-2 -236 159.5 -395.5t397.5 -161.5q287 -2 455 238q16 25 53 26q57 2 65 -63q0 -16 -12 -39 q-186 -266 -516 -289l-82 -108l53 6q147 0 148 -131q0 -78 -70 -123q-59 -39 -141 -41q-102 -2 -172 55q-18 16 -23 41q0 20 21 35q20 12 47 -4q76 -47 121 -47q123 -2 125 75q0 39 -28 58.5t-87 17.5q-18 0 -39.5 -15.5t-34.5 -17.5q-37 0 -39 37q0 8 4 13l115 149 q-276 12 -461.5 210t-187.5 474z" />
<glyph unicode="&#xc8;" horiz-adv-x="964" d="M82 66v1243q0 57 65 63h672q61 0 64 -63q2 -66 -64 -66h-608v-444h608q61 0 64 -64q2 -66 -64 -65h-608v-541h608q61 0 64 -63q2 -66 -64 -66h-672q-65 0 -65 66zM367 1716q0 57 57 58q20 0 39 -19l186 -184q12 -12 17 -39q0 -49 -56 -57q-25 0 -41 16l-186 188 q-12 10 -16 37z" />
<glyph unicode="&#xc9;" horiz-adv-x="964" d="M82 66v1243q0 57 65 63h672q61 0 64 -63q2 -66 -64 -66h-608v-444h608q61 0 64 -64q2 -66 -64 -65h-608v-541h608q61 0 64 -63q2 -66 -64 -66h-672q-65 0 -65 66zM391 1532q0 -51 55 -57q23 0 39 16l189 188q12 12 16 39q0 18 -16.5 37t-40.5 19q-23 0 -39 -17l-188 -186 q-11 -14 -15 -39z" />
<glyph unicode="&#xca;" horiz-adv-x="964" d="M82 66v1243q0 57 65 63h672q61 0 64 -63q2 -66 -64 -66h-608v-444h608q61 0 64 -64q2 -66 -64 -65h-608v-541h608q61 0 64 -63q2 -66 -64 -66h-672q-65 0 -65 66zM260 1532q0 23 16 39l187 186q14 14 41 17q23 0 39 -17l186 -186q12 -12 16 -39q0 -23 -22 -45 q-10 -10 -35 -12q-23 0 -39 16l-145 147l-148 -147q-12 -12 -41 -16q-20 0 -35.5 16t-19.5 41z" />
<glyph unicode="&#xcb;" horiz-adv-x="964" d="M82 66v1243q0 57 65 63h672q61 0 64 -63q2 -66 -64 -66h-608v-444h608q61 0 64 -64q2 -66 -64 -65h-608v-541h608q61 0 64 -63q2 -66 -64 -66h-672q-65 0 -65 66zM309 1573q-2 63 66 65q61 2 63 -65q2 -61 -63 -64q-64 -2 -66 64zM567 1573q-2 63 66 65q61 2 63 -65 q2 -61 -63 -64q-64 -2 -66 64z" />
<glyph unicode="&#xcc;" horiz-adv-x="804" d="M82 66q-2 63 63 63h193v1114h-191q-63 0 -65 66q-2 63 63 63h514q61 0 64 -63q2 -66 -64 -66h-192v-1114h192q61 0 64 -63q2 -66 -64 -66h-512q-63 0 -65 66zM256 1716q0 57 57 58q23 0 39 -17l187 -186q12 -12 16 -39q0 -49 -55 -57q-25 0 -41 16l-187 188 q-12 12 -16 37z" />
<glyph unicode="&#xcd;" horiz-adv-x="804" d="M82 66q-2 63 63 63h193v1114h-191q-63 0 -65 66q-2 63 63 63h514q61 0 64 -63q2 -66 -64 -66h-192v-1114h192q61 0 64 -63q2 -66 -64 -66h-512q-63 0 -65 66zM242 1532q0 -23 16 -38t39 -19q25 0 41 16l188 188q10 14 15 37q0 20 -16.5 39t-39.5 19q-25 0 -41 -17 l-186 -186q-12 -12 -16 -39z" />
<glyph unicode="&#xce;" horiz-adv-x="804" d="M82 66q-2 63 63 63h193v1114h-191q-63 0 -65 66q-2 63 63 63h514q61 0 64 -63q2 -66 -64 -66h-192v-1114h192q61 0 64 -63q2 -66 -64 -66h-512q-63 0 -65 66zM162 1532q0 23 16 39l187 186q12 12 38 17q23 0 39 -17l187 -186q12 -12 16 -39q0 -49 -55 -57q-25 0 -41 16 l-146 147l-147 -147q-12 -12 -39 -16q-23 0 -37 16t-18 41z" />
<glyph unicode="&#xcf;" horiz-adv-x="804" d="M82 66q-2 63 63 63h193v1114h-191q-63 0 -65 66q-2 63 63 63h514q61 0 64 -63q2 -66 -64 -66h-192v-1114h192q61 0 64 -63q2 -66 -64 -66h-512q-63 0 -65 66zM213 1575q-2 61 66 63q61 2 63 -63q2 -63 -63 -66q-64 -2 -66 66zM471 1575q-2 61 66 63q61 2 63 -63 q2 -63 -63 -66q-64 -2 -66 66z" />
<glyph unicode="&#xd0;" horiz-adv-x="1685" d="M82 1309q0 57 65 63q49 0 62 -47l285 -1073l290 625q16 37 54 36q43 0 63 -36l289 -625l287 1073q12 45 61 47q57 2 66 -63q0 -10 -2 -19l-334 -1243q-12 -45 -60 -47q-43 -2 -61 37l-305 659l-305 -657q-18 -37 -58 -39q-49 -2 -63 49l-332 1241q0 13 -2 19zM612 1532 q0 23 17 39l186 186q12 12 39 17q23 0 39 -17l186 -186q12 -12 17 -39q0 -49 -56 -57q-25 0 -41 16l-145 147l-147 -147q-12 -12 -39 -16q-23 0 -37.5 16t-18.5 41z" />
<glyph unicode="&#xd1;" horiz-adv-x="1069" d="M82 66v1241q0 63 63 65q35 2 56 -31l655 -1048v1014q0 63 66 65t65 -63v-1243q0 -63 -65 -66q-33 0 -74 66l-637 1017v-1017q0 -63 -64 -66q-65 -2 -65 66zM182 1556q0 -18 20.5 -35.5t37.5 -17.5q20 0 39 21q43 70 98 71q57 2 178 -67q96 -55 158 -55q102 0 184 108 q14 18 14 35q0 20 -20 41q-18 14 -35 14q-23 0 -39 -22q-55 -74 -106 -74q-16 0 -56 22q-45 27 -98 50q-119 53 -172 53q-111 2 -186 -109q-17 -17 -17 -35z" />
<glyph unicode="&#xd2;" horiz-adv-x="1536" d="M61 686q-2 287 199 485.5t488 200.5t485.5 -198.5t200.5 -487.5t-199 -485.5t-487 -200.5q-287 -2 -486 198.5t-201 487.5zM190 686q-2 -236 160 -395.5t398 -161.5q233 -2 394 161t163 396q2 231 -162 393t-395 164q-233 2 -394.5 -161t-163.5 -396zM612 1716 q0 23 16.5 37t41.5 19q23 0 39 -17l186 -184q12 -12 16 -39q0 -49 -55 -57q-25 0 -41 16l-186 188q-13 10 -17 37z" />
<glyph unicode="&#xd3;" horiz-adv-x="1536" d="M61 686q-2 287 199 485.5t488 200.5t485.5 -198.5t200.5 -487.5t-199 -485.5t-487 -200.5q-287 -2 -486 198.5t-201 487.5zM190 686q-2 -236 160 -395.5t398 -161.5q233 -2 394 161t163 396q2 231 -162 393t-395 164q-233 2 -394.5 -161t-163.5 -396zM584 1532 q0 -23 16 -38t39 -19q25 0 41 16l188 188q10 14 15 39q0 18 -16.5 37t-39.5 19q-25 0 -41 -17l-186 -186q-12 -12 -16 -39z" />
<glyph unicode="&#xd4;" horiz-adv-x="1536" d="M61 686q-2 287 199 485.5t488 200.5t485.5 -198.5t200.5 -487.5t-199 -485.5t-487 -200.5q-287 -2 -486 198.5t-201 487.5zM190 686q-2 -236 160 -395.5t398 -161.5q233 -2 394 161t163 396q2 231 -162 393t-395 164q-233 2 -394.5 -161t-163.5 -396zM506 1532 q0 23 16 39l187 186q12 12 39 17q23 0 38 -17l187 -186q12 -12 16 -39q0 -49 -55 -57q-25 0 -41 16l-145 147l-148 -147q-12 -12 -39 -16q-23 0 -37 16t-18 41z" />
<glyph unicode="&#xd5;" horiz-adv-x="1536" d="M61 686q-2 287 199 485.5t488 200.5t485.5 -198.5t200.5 -487.5t-199 -485.5t-487 -200.5q-287 -2 -486 198.5t-201 487.5zM190 686q-2 -236 160 -395.5t398 -161.5q233 -2 394 161t163 396q2 231 -162 393t-395 164q-233 2 -394.5 -161t-163.5 -396zM408 1554 q0 -18 18 -35.5t37 -17.5q20 0 41 23q43 68 98 69q57 2 178 -67q96 -55 158 -56q98 0 184 111q14 18 15 35q0 18 -21 39q-18 14 -35 14q-20 0 -39 -20q-55 -74 -106 -76q-16 0 -55 21.5t-99 52.5q-115 49 -172 51q-113 2 -186 -109q-16 -17 -16 -35z" />
<glyph unicode="&#xd6;" horiz-adv-x="1536" d="M61 686q-2 287 199 485.5t488 200.5t485.5 -198.5t200.5 -487.5t-199 -485.5t-487 -200.5q-287 -2 -486 198.5t-201 487.5zM190 686q-2 -236 160 -395.5t398 -161.5q233 -2 394 161t163 396q2 231 -162 393t-395 164q-233 2 -394.5 -161t-163.5 -396zM573 1573 q-2 63 66 65q61 2 63 -65q2 -61 -63 -64q-64 -2 -66 64zM831 1573q-2 63 66 65q61 2 64 -65q2 -61 -64 -64q-64 -2 -66 64z" />
<glyph unicode="&#xd7;" horiz-adv-x="925" d="M82 195q0 23 18 47l273 270l-273 270q-18 18 -18 47q0 55 65 64q27 0 46 -19l270 -270l270 270q18 18 47 19q55 0 64 -64q0 -23 -19 -47l-270 -270l270 -270q18 -18 19 -47q0 -25 -19.5 -44.5t-44.5 -19.5q-23 0 -47 19l-270 270l-270 -270q-18 -18 -46 -19q-59 1 -65 64 z" />
<glyph unicode="&#xd8;" horiz-adv-x="1536" d="M82 686q-2 287 198.5 485.5t487.5 200.5q174 2 330 -84l35 55q16 27 55 29q23 2 42 -18.5t21 -44.5q0 -20 -10 -37l-37 -55q248 -205 250 -531q2 -287 -198.5 -485.5t-487.5 -200.5q-160 -2 -309 74l-29 -45q-16 -27 -55 -29q-27 -2 -45.5 17.5t-18.5 45.5q0 20 11 37 l26 43q-264 203 -266 543zM211 686q-2 -264 209 -434l606 928q-121 61 -258 63q-233 2 -394 -161t-163 -396zM528 182q113 -51 240 -53q233 -2 394 161t163 396q2 250 -192 420z" />
<glyph unicode="&#xd9;" d="M82 512v797q0 61 65 63q63 2 64 -63v-797q0 -160 111.5 -270.5t271.5 -112.5q158 -2 270.5 111.5t112.5 271.5v795q0 63 65 65q63 2 64 -63v-1243q0 -63 -64 -66q-66 -2 -65 66v108q-147 -172 -383 -174q-213 -2 -362.5 148.5t-149.5 363.5zM446 1716q0 23 16.5 37 t41.5 19q23 0 39 -17l186 -184q12 -12 16 -39q0 -49 -55 -57q-25 0 -41 16l-186 188q-13 10 -17 37z" />
<glyph unicode="&#xda;" d="M82 512v797q0 61 65 63q63 2 64 -63v-797q0 -160 111.5 -270.5t271.5 -112.5q158 -2 270.5 111.5t112.5 271.5v795q0 63 65 65q63 2 64 -63v-1243q0 -63 -64 -66q-66 -2 -65 66v108q-147 -172 -383 -174q-213 -2 -362.5 148.5t-149.5 363.5zM438 1532q0 -23 16.5 -38 t39.5 -19q25 0 41 16l186 188q12 14 16 39q0 18 -16 37t-41 19q-23 0 -39 -17l-186 -186q-13 -12 -17 -39z" />
<glyph unicode="&#xdb;" d="M82 512v797q0 61 65 63q63 2 64 -63v-797q0 -160 111.5 -270.5t271.5 -112.5q158 -2 270.5 111.5t112.5 271.5v795q0 63 65 65q63 2 64 -63v-1243q0 -63 -64 -66q-66 -2 -65 66v108q-147 -172 -383 -174q-213 -2 -362.5 148.5t-149.5 363.5zM352 1532q0 23 17 39l186 186 q12 12 39 17q23 0 39 -17l186 -186q12 -12 17 -39q0 -49 -56 -57q-25 0 -41 16l-145 147l-148 -147q-12 -12 -38 -16q-23 0 -37.5 16t-18.5 41z" />
<glyph unicode="&#xdc;" d="M82 512v797q0 61 65 63q63 2 64 -63v-797q0 -160 111.5 -270.5t271.5 -112.5q158 -2 270.5 111.5t112.5 271.5v795q0 63 65 65q63 2 64 -63v-1243q0 -63 -64 -66q-66 -2 -65 66v108q-147 -172 -383 -174q-213 -2 -362.5 148.5t-149.5 363.5zM401 1573q-2 63 64 65 q63 2 65 -65q2 -61 -65 -64q-62 -2 -64 64zM659 1573q-2 63 64 65q63 2 65 -65q2 -61 -65 -64q-62 -2 -64 64z" />
<glyph unicode="&#xdd;" horiz-adv-x="1136" d="M41 1307q0 -18 12 -37l455 -649v-555q0 -63 65 -66q63 -2 64 66v555l448 643q6 8 11 36q0 55 -64 64q-29 0 -53 -27l-408 -583l-413 589q-18 27 -52 29q-27 0 -46 -19t-19 -46zM438 1554q0 -49 56 -55q23 0 38 17l189 188q12 10 16 37q0 49 -57 55q-23 0 -39 -16 l-186 -185q-13 -12 -17 -41z" />
<glyph unicode="&#xde;" horiz-adv-x="1136" d="M41 1307q0 -18 12 -37l455 -649v-555q0 -63 65 -66q63 -2 64 66v555l448 643q6 8 11 36q0 55 -64 64q-29 0 -53 -27l-408 -583l-413 589q-18 27 -52 29q-27 0 -46 -19t-19 -46zM330 1532q0 23 16 39l186 186q12 12 39 17q23 0 39 -17l187 -186q12 -12 16 -39 q0 -49 -55 -57q-25 0 -41 16l-146 147l-147 -147q-12 -12 -39 -16q-23 0 -37 16t-18 41z" />
<glyph unicode="&#xdf;" horiz-adv-x="1079" d="M82 66q0 -63 65 -66q63 -2 64 66v856q0 152 108 239q100 80 259 82q82 0 140 -58.5t60 -142.5t-57 -142t-143 -60q-63 -2 -66 -66q-2 -61 66 -63q121 -2 210 -93q80 -82 80 -198q0 -123 -84 -206t-206 -85q-66 -2 -134 33q-8 2 -26 4q-25 0 -44.5 -19.5t-19.5 -44.5 q0 -39 39 -59q80 -43 185 -43q174 0 295.5 123t123.5 297q2 109 -58 210t-155 154q123 98 123 258q0 131 -97 230.5t-232 99.5q-248 0 -385 -158q-111 -127 -111 -292v-856z" />
<glyph unicode="&#xe0;" horiz-adv-x="1146" d="M41 512q-2 215 147.5 362.5t364.5 149.5q225 2 383 -172v109q0 61 65 63q63 2 64 -63v-895q0 -63 -66 -66q-63 -2 -63 66v106q-154 -172 -383 -172q-215 0 -362.5 148.5t-149.5 363.5zM170 512q-2 -158 110.5 -269.5t272.5 -113.5q158 -2 269.5 110.5t113.5 272.5 q2 158 -110.5 269.5t-272.5 113.5q-158 2 -269.5 -110.5t-113.5 -272.5zM432 1411q0 20 17.5 37.5t37.5 17.5q25 0 41 -16l187 -184q12 -12 16 -41q0 -23 -22 -45q-10 -10 -35 -13q-20 0 -39 19l-186 186q-13 12 -17 39z" />
<glyph unicode="&#xe1;" horiz-adv-x="1146" d="M41 512q-2 215 147.5 362.5t364.5 149.5q225 2 383 -172v109q0 61 65 63q63 2 64 -63v-895q0 -63 -66 -66q-63 -2 -63 66v106q-154 -172 -383 -172q-215 0 -362.5 148.5t-149.5 363.5zM170 512q-2 -158 110.5 -269.5t272.5 -113.5q158 -2 269.5 110.5t113.5 272.5 q2 158 -110.5 269.5t-272.5 113.5q-158 2 -269.5 -110.5t-113.5 -272.5zM412 1225q0 -23 16 -38.5t39 -19.5q25 0 41 17l186 188q12 14 17 39q0 18 -16.5 36.5t-41.5 18.5q-23 0 -39 -16l-186 -186q-12 -12 -16 -39z" />
<glyph unicode="&#xe2;" horiz-adv-x="1146" d="M41 512q-2 215 147.5 362.5t364.5 149.5q225 2 383 -172v109q0 61 65 63q63 2 64 -63v-895q0 -63 -66 -66q-63 -2 -63 66v106q-154 -172 -383 -172q-215 0 -362.5 148.5t-149.5 363.5zM170 512q-2 -158 110.5 -269.5t272.5 -113.5q158 -2 269.5 110.5t113.5 272.5 q2 158 -110.5 269.5t-272.5 113.5q-158 2 -269.5 -110.5t-113.5 -272.5zM317 1130q0 23 17 39l186 187q12 12 39 16q23 0 39 -16l186 -187q12 -12 17 -39q0 -49 -56 -57q-25 0 -40 17l-146 147l-147 -147q-12 -12 -39 -17q-23 0 -37.5 16t-18.5 41z" />
<glyph unicode="&#xe3;" horiz-adv-x="1146" d="M41 512q-2 215 147.5 362.5t364.5 149.5q225 2 383 -172v109q0 61 65 63q63 2 64 -63v-895q0 -63 -66 -66q-63 -2 -63 66v106q-154 -172 -383 -172q-215 0 -362.5 148.5t-149.5 363.5zM170 512q-2 -158 110.5 -269.5t272.5 -113.5q158 -2 269.5 110.5t113.5 272.5 q2 158 -110.5 269.5t-272.5 113.5q-158 2 -269.5 -110.5t-113.5 -272.5zM213 1219q0 -18 17.5 -35t37.5 -17t39 21q43 70 99 72q51 2 98 -23q166 -102 237 -102q98 0 185 110q14 18 14 37q0 18 -18.5 35.5t-38.5 17.5t-37 -22q-55 -74 -105 -74q-16 0 -57 23q-51 29 -98 49 q-119 53 -172 53q-106 2 -187 -109q-14 -20 -14 -36z" />
<glyph unicode="&#xe4;" horiz-adv-x="1146" d="M41 512q-2 215 147.5 362.5t364.5 149.5q225 2 383 -172v109q0 61 65 63q63 2 64 -63v-895q0 -63 -66 -66q-63 -2 -63 66v106q-154 -172 -383 -172q-215 0 -362.5 148.5t-149.5 363.5zM170 512q-2 -158 110.5 -269.5t272.5 -113.5q158 -2 269.5 110.5t113.5 272.5 q2 158 -110.5 269.5t-272.5 113.5q-158 2 -269.5 -110.5t-113.5 -272.5zM367 1307q-2 63 63 65q63 2 66 -65q2 -61 -66 -64q-61 -2 -63 64zM625 1307q-2 63 63 65q63 2 66 -65q2 -61 -66 -64q-61 -2 -63 64z" />
<glyph unicode="&#xe5;" horiz-adv-x="1146" d="M41 512q-2 215 147.5 362.5t364.5 149.5q225 2 383 -172v109q0 61 65 63q63 2 64 -63v-895q0 -63 -66 -66q-63 -2 -63 66v106q-154 -172 -383 -172q-215 0 -362.5 148.5t-149.5 363.5zM170 512q-2 -158 110.5 -269.5t272.5 -113.5q158 -2 269.5 110.5t113.5 272.5 q2 158 -110.5 269.5t-272.5 113.5q-158 2 -269.5 -110.5t-113.5 -272.5zM408 1245q0 68 43 111t110 43q68 0 110 -43t42 -111t-42 -110.5t-110 -42.5t-110.5 42.5t-42.5 110.5zM485 1245q-2 -29 21 -53q20 -16 55 -21q68 0 74 74q0 70 -74 76q-72 0 -76 -76z" />
<glyph unicode="&#xe6;" horiz-adv-x="2000" d="M41 512q-2 215 147.5 362.5t364.5 149.5q225 2 383 -172v109q0 61 65 63q63 2 64 -63v-109q154 172 383 172q205 0 351.5 -139.5t160.5 -341.5q2 -27 -19.5 -45.5t-48.5 -18.5h-825q12 -152 120.5 -250t260.5 -100q197 -2 313 164q18 25 54 26q57 2 65 -65q0 -20 -12 -37 q-154 -215 -420 -217q-225 -2 -383 172v-106q0 -63 -66 -66q-63 -2 -63 66v106q-154 -172 -383 -172q-215 0 -362.5 148.5t-149.5 363.5zM170 512q-2 -158 110.5 -269.5t272.5 -113.5q158 -2 269.5 110.5t113.5 272.5q2 158 -110.5 269.5t-272.5 113.5q-158 2 -269.5 -110.5 t-113.5 -272.5zM1077 608h742q-31 127 -135.5 206t-235.5 81q-129 2 -232.5 -79t-138.5 -208z" />
<glyph unicode="&#xe7;" horiz-adv-x="1026" d="M41 512q-2 215 147.5 362.5t364.5 149.5q264 2 420 -217q12 -16 12 -39q0 -27 -19.5 -45t-45.5 -18q-33 0 -54 28q-117 160 -313 162q-158 2 -269.5 -110.5t-113.5 -272.5q-2 -158 110.5 -269.5t272.5 -113.5q197 -2 313 162q18 27 54 28q57 2 65 -65q0 -18 -12 -37 q-135 -195 -373 -215l-86 -113l53 7q147 0 148 -132q0 -78 -70 -122q-59 -39 -141 -41q-102 -2 -172 55q-16 16 -21 39q0 23 21 35q20 12 45 -2q78 -47 121 -47q123 -2 125 75q2 76 -115 76q-16 0 -37.5 -15.5t-34.5 -17.5q-37 0 -39 35q0 6 2 14l119 154 q-205 12 -340 158.5t-137 351.5z" />
<glyph unicode="&#xe8;" horiz-adv-x="1105" d="M41 512q-2 215 147.5 362.5t364.5 149.5q203 2 350.5 -138.5t161.5 -342.5q2 -27 -19.5 -45.5t-48.5 -18.5h-825q12 -152 119.5 -250t261.5 -100q98 -2 199.5 43t154.5 119q16 23 51 26q57 0 66 -65q0 -18 -12 -37q-70 -100 -205 -160q-123 -53 -254 -55 q-213 -2 -361.5 147.5t-150.5 364.5zM182 606h742q-31 127 -135.5 207t-235.5 82t-234.5 -80t-136.5 -209zM424 1411q0 20 17.5 37.5t37.5 17.5q25 0 41 -16l187 -184q12 -12 16 -41q0 -23 -23 -45q-10 -10 -34 -13q-20 0 -39 19l-187 186q-12 12 -16 39z" />
<glyph unicode="&#xe9;" horiz-adv-x="1105" d="M41 512q-2 215 147.5 362.5t364.5 149.5q203 2 350.5 -138.5t161.5 -342.5q2 -27 -19.5 -45.5t-48.5 -18.5h-825q12 -152 119.5 -250t261.5 -100q98 -2 199.5 43t154.5 119q16 23 51 26q57 0 66 -65q0 -18 -12 -37q-70 -100 -205 -160q-123 -53 -254 -55 q-213 -2 -361.5 147.5t-150.5 364.5zM182 606h742q-31 127 -135.5 207t-235.5 82t-234.5 -80t-136.5 -209zM414 1225q0 -23 16 -38.5t39 -19.5q25 0 41 17l186 188q12 14 17 39q0 18 -16.5 36.5t-41.5 18.5q-23 0 -39 -16l-186 -186q-12 -12 -16 -39z" />
<glyph unicode="&#xea;" horiz-adv-x="1105" d="M41 512q-2 215 147.5 362.5t364.5 149.5q203 2 350.5 -138.5t161.5 -342.5q2 -27 -19.5 -45.5t-48.5 -18.5h-825q12 -152 119.5 -250t261.5 -100q98 -2 199.5 43t154.5 119q16 23 51 26q57 0 66 -65q0 -18 -12 -37q-70 -100 -205 -160q-123 -53 -254 -55 q-213 -2 -361.5 147.5t-150.5 364.5zM182 606h742q-31 127 -135.5 207t-235.5 82t-234.5 -80t-136.5 -209zM315 1130q0 23 17 39l186 187q12 12 39 16q23 0 39 -16l186 -187q12 -12 17 -39q0 -49 -56 -57q-25 0 -41 17l-145 147l-147 -147q-12 -12 -39 -17q-23 0 -37.5 16 t-18.5 41z" />
<glyph unicode="&#xeb;" horiz-adv-x="1105" d="M41 512q-2 215 147.5 362.5t364.5 149.5q203 2 350.5 -138.5t161.5 -342.5q2 -27 -19.5 -45.5t-48.5 -18.5h-825q12 -152 119.5 -250t261.5 -100q98 -2 199.5 43t154.5 119q16 23 51 26q57 0 66 -65q0 -18 -12 -37q-70 -100 -205 -160q-123 -53 -254 -55 q-213 -2 -361.5 147.5t-150.5 364.5zM182 606h742q-31 127 -135.5 207t-235.5 82t-234.5 -80t-136.5 -209zM365 1307q-2 63 63 65q63 2 66 -65q2 -61 -66 -64q-61 -2 -63 64zM623 1307q-2 63 63 65q63 2 66 -65q2 -61 -66 -64q-61 -2 -63 64z" />
<glyph unicode="&#xec;" horiz-adv-x="333" d="M2 1411q0 23 17.5 39t39.5 16q23 0 39 -16l187 -184q12 -12 16 -41q0 -49 -55 -58q-23 0 -41 19l-187 186q-12 12 -16 39zM82 66v892q0 63 63 66q66 2 66 -66v-892q0 -63 -64 -66q-65 -2 -65 66z" />
<glyph unicode="&#xed;" horiz-adv-x="333" d="M2 1225q0 -23 16.5 -38.5t38.5 -19.5q25 0 41 17l187 188q12 14 16 39q0 18 -16.5 36.5t-40.5 18.5q-23 0 -39 -16l-187 -186q-12 -12 -16 -39zM82 66v892q0 63 63 66q66 2 66 -66v-892q0 -63 -64 -66q-65 -2 -65 66z" />
<glyph unicode="&#xee;" horiz-adv-x="333" d="M-96 1130q0 23 16 39l186 187q14 14 41 16q23 0 39 -16l187 -187q12 -12 16 -39q0 -23 -22 -45q-10 -10 -35 -12q-23 0 -39 17l-146 147l-147 -147q-14 -12 -41 -17q-23 0 -39 17t-16 40zM82 66v892q0 63 63 66q66 2 66 -66v-892q0 -63 -64 -66q-65 -2 -65 66z" />
<glyph unicode="&#xef;" horiz-adv-x="333" d="M-47 1307q-2 63 65 65q61 2 64 -65q2 -61 -64 -64q-63 -2 -65 64zM82 66v892q0 63 63 66q66 2 66 -66v-892q0 -63 -64 -66q-65 -2 -65 66zM211 1307q-2 63 65 65q61 2 64 -65q2 -61 -64 -64q-63 -2 -65 64z" />
<glyph unicode="&#xf0;" horiz-adv-x="1523" d="M61 963q0 -10 5 -23l307 -897q16 -49 69 -45q37 6 54 45l247 727l250 -727q23 -47 70 -43q37 2 51 43l307 895q4 12 4 23q0 63 -65 63q-45 0 -60 -43l-247 -723l-248 723q-2 14 -41 41q-10 4 -23 4q-45 0 -59 -45l-248 -723l-250 723q-16 45 -61 45q-62 0 -62 -63z M524 1130q0 23 17 39l186 187q16 12 41 16q23 0 39 -16l186 -187q12 -12 17 -39q0 -49 -56 -57q-25 0 -41 17l-145 147l-147 -147q-12 -12 -41 -17q-20 0 -36 16t-20 41z" />
<glyph unicode="&#xf1;" horiz-adv-x="1036" d="M82 66v892q0 63 63 66q66 2 66 -66v-61q125 125 307 127q178 2 307 -128t129 -308v-525q0 -61 -63 -63q-66 -2 -66 63v525q0 129 -89 217t-218 90q-127 2 -217 -89t-90 -218v-522q0 -63 -64 -66q-65 -2 -65 66zM188 1229q0 -20 19.5 -37.5t36.5 -17.5q20 0 39 20 q43 70 98 72q57 2 180 -68q100 -55 156 -57q96 -2 184 110q14 18 14 37q0 18 -18 35.5t-39 17.5q-20 0 -37 -22q-55 -74 -106 -74q-14 0 -56 23q-51 29 -98 49q-119 53 -172 53q-111 2 -186 -108q-15 -17 -15 -33z" />
<glyph unicode="&#xf2;" horiz-adv-x="1105" d="M41 512q-2 215 147.5 362.5t364.5 149.5t362.5 -147.5t149.5 -364.5t-147.5 -362.5t-364.5 -149.5t-362.5 147.5t-149.5 364.5zM170 512q-2 -158 110.5 -269.5t272.5 -113.5q158 -2 269.5 110.5t113.5 272.5q2 158 -110.5 269.5t-272.5 113.5q-158 2 -269.5 -110.5 t-113.5 -272.5zM432 1411q0 20 17.5 37.5t37.5 17.5q25 0 41 -16l187 -184q12 -12 16 -41q0 -23 -22 -45q-10 -10 -35 -13q-20 0 -39 19l-186 186q-13 12 -17 39z" />
<glyph unicode="&#xf3;" horiz-adv-x="1105" d="M41 512q-2 215 147.5 362.5t364.5 149.5t362.5 -147.5t149.5 -364.5t-147.5 -362.5t-364.5 -149.5t-362.5 147.5t-149.5 364.5zM170 512q-2 -158 110.5 -269.5t272.5 -113.5q158 -2 269.5 110.5t113.5 272.5q2 158 -110.5 269.5t-272.5 113.5q-158 2 -269.5 -110.5 t-113.5 -272.5zM412 1225q0 -23 16 -38.5t39 -19.5q25 0 41 17l186 188q12 14 17 39q0 18 -16.5 36.5t-41.5 18.5q-23 0 -39 -16l-186 -186q-12 -12 -16 -39z" />
<glyph unicode="&#xf4;" horiz-adv-x="1105" d="M41 512q-2 215 147.5 362.5t364.5 149.5t362.5 -147.5t149.5 -364.5t-147.5 -362.5t-364.5 -149.5t-362.5 147.5t-149.5 364.5zM170 512q-2 -158 110.5 -269.5t272.5 -113.5q158 -2 269.5 110.5t113.5 272.5q2 158 -110.5 269.5t-272.5 113.5q-158 2 -269.5 -110.5 t-113.5 -272.5zM315 1130q0 23 17 39l186 187q12 12 39 16q23 0 39 -16l186 -187q12 -12 17 -39q0 -49 -56 -57q-25 0 -41 17l-145 147l-147 -147q-12 -12 -39 -17q-23 0 -37.5 16t-18.5 41z" />
<glyph unicode="&#xf5;" horiz-adv-x="1105" d="M41 512q-2 215 147.5 362.5t364.5 149.5t362.5 -147.5t149.5 -364.5t-147.5 -362.5t-364.5 -149.5t-362.5 147.5t-149.5 364.5zM170 512q-2 -158 110.5 -269.5t272.5 -113.5q158 -2 269.5 110.5t113.5 272.5q2 158 -110.5 269.5t-272.5 113.5q-158 2 -269.5 -110.5 t-113.5 -272.5zM219 1194q0 -20 19.5 -37.5t35.5 -17.5q20 0 39 22q43 68 99 70q57 2 180 -68q98 -55 156 -55q102 0 184 111q16 16 16 34t-22 39q-18 14 -35 15q-20 0 -39 -21q-51 -74 -107 -76q-14 0 -55 23q-70 39 -98 51q-115 49 -172 51q-111 2 -187 -108 q-14 -17 -14 -33z" />
<glyph unicode="&#xf6;" horiz-adv-x="1105" d="M41 512q-2 215 147.5 362.5t364.5 149.5t362.5 -147.5t149.5 -364.5t-147.5 -362.5t-364.5 -149.5t-362.5 147.5t-149.5 364.5zM170 512q-2 -158 110.5 -269.5t272.5 -113.5q158 -2 269.5 110.5t113.5 272.5q2 158 -110.5 269.5t-272.5 113.5q-158 2 -269.5 -110.5 t-113.5 -272.5zM369 1307q-2 63 63 65q63 2 66 -65q2 -61 -66 -64q-61 -2 -63 64zM627 1307q-2 63 63 65q63 2 66 -65q2 -61 -66 -64q-61 -2 -63 64z" />
<glyph unicode="&#xf7;" d="M82 512q-2 66 65 66h895q61 0 64 -66q2 -63 -64 -63h-895q-63 0 -65 63zM502 221q-2 39 25.5 64.5t66.5 27.5t64.5 -25.5t27.5 -66.5t-25.5 -64.5t-66.5 -27.5t-64.5 25.5t-27.5 66.5zM502 799q-2 39 25.5 64.5t66.5 27.5t64.5 -25.5t27.5 -66.5t-25.5 -64.5t-66.5 -27.5 t-64.5 25.5t-27.5 66.5z" />
<glyph unicode="&#xf8;" d="M82 512q0 215 148.5 362.5t363.5 149.5q131 2 248 -63l22 34q16 27 56 29q23 2 42 -18.5t21 -44.5q0 -20 -10 -37l-27 -41q160 -150 160 -371q0 -215 -148.5 -362.5t-363.5 -149.5q-104 0 -199 39l-28 -39q-18 -31 -56 -31q-27 0 -45 19.5t-18 46.5q0 20 10 35l27 34 q-203 154 -203 408zM211 512q-2 -182 143 -299l418 639q-82 43 -178 43q-160 0 -270.5 -111.5t-112.5 -271.5zM467 150q66 -20 127 -21q158 -2 269.5 110.5t113.5 272.5q2 147 -103 260z" />
<glyph unicode="&#xf9;" horiz-adv-x="1036" d="M82 436v522q0 63 63 66q66 2 66 -66v-522q0 -129 89 -217t218 -90q127 -2 217 89t90 218v522q0 63 64 66q66 2 65 -66v-892q0 -63 -65 -66q-63 -2 -64 66v61q-125 -125 -307 -127t-309 126t-127 310zM369 1411q0 20 17 37.5t38 17.5q25 0 41 -16l186 -184q12 -12 17 -41 q0 -23 -23 -45q-10 -10 -35 -13q-20 0 -39 19l-186 186q-12 12 -16 39z" />
<glyph unicode="&#xfa;" horiz-adv-x="1036" d="M82 436v522q0 63 63 66q66 2 66 -66v-522q0 -129 89 -217t218 -90q127 -2 217 89t90 218v522q0 63 64 66q66 2 65 -66v-892q0 -63 -65 -66q-63 -2 -64 66v61q-125 -125 -307 -127t-309 126t-127 310zM362 1225q0 -23 16.5 -38.5t39.5 -19.5q25 0 41 17l186 188 q12 14 17 39q0 18 -16.5 36.5t-41.5 18.5q-23 0 -39 -16l-186 -186q-13 -12 -17 -39z" />
<glyph unicode="&#xfb;" horiz-adv-x="1036" d="M82 436v522q0 63 63 66q66 2 66 -66v-522q0 -129 89 -217t218 -90q127 -2 217 89t90 218v522q0 63 64 66q66 2 65 -66v-892q0 -63 -65 -66q-63 -2 -64 66v61q-125 -125 -307 -127t-309 126t-127 310zM276 1130q0 23 17 39l186 187q12 12 39 16q23 0 39 -16l186 -187 q12 -12 17 -39q0 -49 -55 -57q-25 0 -41 17l-146 147l-147 -147q-12 -12 -39 -17q-23 0 -37.5 16t-18.5 41z" />
<glyph unicode="&#xfc;" horiz-adv-x="1036" d="M82 436v522q0 63 63 66q66 2 66 -66v-522q0 -129 89 -217t218 -90q127 -2 217 89t90 218v522q0 63 64 66q66 2 65 -66v-892q0 -63 -65 -66q-63 -2 -64 66v61q-125 -125 -307 -127t-309 126t-127 310zM326 1307q-2 63 63 65q63 2 66 -65q2 -61 -66 -64q-61 -2 -63 64z M584 1307q-2 63 63 65q63 2 66 -65q2 -61 -66 -64q-61 -2 -63 64z" />
<glyph unicode="&#xfd;" horiz-adv-x="1036" d="M82 434q0 -180 127 -308t309 -130q180 0 307 127v-199q0 -127 -90 -218t-215 -91q-221 0 -307 172q-16 33 -55 33q-59 0 -60 -62q0 -20 11 -41q121 -229 411 -229q180 0 307 128t127 308v1032q0 66 -63 66q-66 0 -66 -66v-524q0 -127 -90 -217t-217 -90t-217 90t-90 217 v524q0 66 -64 66q-66 0 -65 -66v-522zM403 1225q0 -23 16.5 -38.5t39.5 -19.5q25 0 41 17l186 188q12 14 16 39q0 18 -16 36.5t-41 18.5q-23 0 -39 -16l-186 -186q-13 -12 -17 -39z" />
<glyph unicode="&#xfe;" horiz-adv-x="1036" d="M82 434q0 -180 127 -308t309 -130q180 0 307 127v-199q0 -127 -90 -218t-215 -91q-221 0 -307 172q-16 33 -55 33q-59 0 -60 -62q0 -20 11 -41q121 -229 411 -229q180 0 307 128t127 308v1032q0 66 -63 66q-66 0 -66 -66v-524q0 -127 -90 -217t-217 -90t-217 90t-90 217 v524q0 66 -64 66q-66 0 -65 -66v-522zM276 1130q0 23 17 39l186 187q12 12 39 16q23 0 39 -16l186 -187q12 -12 17 -39q0 -49 -55 -57q-25 0 -41 17l-146 147l-147 -147q-12 -12 -39 -17q-23 0 -37.5 16t-18.5 41z" />
<glyph unicode="&#xff;" horiz-adv-x="1036" d="M82 434q0 -180 127 -308t309 -130q180 0 307 127v-199q0 -127 -90 -218t-215 -91q-221 0 -307 172q-16 33 -55 33q-59 0 -60 -62q0 -20 11 -41q121 -229 411 -229q180 0 307 128t127 308v1032q0 66 -63 66q-66 0 -66 -66v-524q0 -127 -90 -217t-217 -90t-217 90t-90 217 v524q0 66 -64 66q-66 0 -65 -66v-522zM328 1307q-2 63 63 65q63 2 66 -65q2 -61 -66 -64q-61 -2 -63 64zM586 1307q-2 63 63 65q63 2 66 -65q2 -61 -66 -64q-61 -2 -63 64z" />
<glyph unicode="&#x152;" horiz-adv-x="2207" d="M82 686q-2 287 198.5 485.5t487.5 200.5q164 2 311.5 -74.5t245.5 -210.5l-2 222q0 57 66 63h671q63 0 66 -63q2 -66 -64 -66h-608v-444h606q63 0 66 -64q2 -66 -66 -65h-606v-541h608q61 0 64 -63q2 -66 -66 -66h-671q-63 0 -64 66v219q-203 -283 -557 -285 q-287 -2 -485.5 198.5t-200.5 487.5zM211 686q-2 -236 159.5 -395.5t397.5 -161.5q223 -2 390 150.5t167 373.5v66q0 215 -165 369.5t-392 154.5q-233 0 -394 -162t-163 -395z" />
<glyph unicode="&#x153;" horiz-adv-x="1998" d="M41 512q-2 215 147.5 362.5t364.5 149.5q137 2 258 -69.5t188 -192.5q150 260 449 262q201 2 350.5 -139.5t159.5 -341.5q2 -27 -18.5 -45.5t-47.5 -18.5h-827q12 -152 121.5 -250t261.5 -100q197 -2 313 164q18 25 54 26q25 2 43 -19t20 -46q0 -20 -12 -37 q-154 -215 -418 -217q-141 -2 -259 68.5t-190 193.5q-68 -121 -187.5 -190.5t-258.5 -71.5q-213 -2 -361.5 147.5t-150.5 364.5zM170 512q-2 -158 110.5 -269.5t272.5 -113.5q154 -2 264.5 103.5t118.5 259.5v40q-6 152 -117.5 256.5t-265.5 106.5q-158 2 -269.5 -110.5 t-113.5 -272.5zM1075 608h744q-31 125 -136.5 205t-234.5 82q-131 2 -234.5 -79t-138.5 -208z" />
<glyph unicode="&#x178;" horiz-adv-x="1136" d="M41 1307q0 -18 12 -37l455 -649v-555q0 -63 65 -66q63 -2 64 66v555l448 643q6 8 11 36q0 55 -64 64q-29 0 -53 -27l-408 -583l-413 589q-18 27 -52 29q-27 0 -46 -19t-19 -46zM377 1573q-2 63 65 65q61 2 64 -65q2 -61 -64 -64q-63 -2 -65 64zM635 1573q-2 63 65 65 q61 2 64 -65q2 -61 -64 -64q-63 -2 -65 64z" />
<glyph unicode="&#x2c6;" horiz-adv-x="1013" d="M82 684q0 18 8 33l361 622q18 31 57 33q35 2 55 -33l361 -622q4 -12 8 -33q0 -57 -64 -66q-39 0 -57 33l-303 529l-305 -529q-18 -31 -56 -33q-27 -2 -46 18.5t-19 47.5z" />
<glyph unicode="&#x2dc;" horiz-adv-x="696" d="M-463 229q0 -27 19.5 -45t45.5 -18q29 0 50 22q49 86 120 88q80 2 236 -84q125 -68 209 -69q125 -2 227 137q14 14 17 41q0 55 -66 63q-33 0 -49 -22q-63 -88 -131 -90q-10 0 -205 88q-141 63 -227 65q-139 2 -232 -133q-10 -16 -14 -43z" />
<glyph unicode="&#x2000;" horiz-adv-x="897" />
<glyph unicode="&#x2001;" horiz-adv-x="1796" />
<glyph unicode="&#x2002;" horiz-adv-x="897" />
<glyph unicode="&#x2003;" horiz-adv-x="1796" />
<glyph unicode="&#x2004;" horiz-adv-x="598" />
<glyph unicode="&#x2005;" horiz-adv-x="448" />
<glyph unicode="&#x2006;" horiz-adv-x="299" />
<glyph unicode="&#x2007;" horiz-adv-x="299" />
<glyph unicode="&#x2008;" horiz-adv-x="223" />
<glyph unicode="&#x2009;" horiz-adv-x="358" />
<glyph unicode="&#x200a;" horiz-adv-x="98" />
<glyph unicode="&#x2010;" d="M82 512q-2 66 65 66h895q61 0 64 -66q2 -63 -64 -63h-895q-63 0 -65 63z" />
<glyph unicode="&#x2011;" d="M82 512q-2 66 65 66h895q61 0 64 -66q2 -63 -64 -63h-895q-63 0 -65 63z" />
<glyph unicode="&#x2012;" d="M82 512q-2 66 65 66h895q61 0 64 -66q2 -63 -64 -63h-895q-63 0 -65 63z" />
<glyph unicode="&#x2013;" d="M82 512q-2 66 65 66h895q61 0 64 -66q2 -63 -64 -63h-895q-63 0 -65 63z" />
<glyph unicode="&#x2014;" horiz-adv-x="1802" d="M82 512q-2 66 65 66l1508 -3q63 0 65 -63q2 -66 -65 -66l-1508 3q-63 0 -65 63z" />
<glyph unicode="&#x2018;" horiz-adv-x="348" d="M82 1120q-2 68 55.5 148t122.5 104v-33q-29 -12 -57 -49q-18 -33 -23 -78q37 0 60.5 -27.5t25.5 -64.5q2 -39 -25.5 -64.5t-66.5 -27.5t-64.5 25.5t-27.5 66.5z" />
<glyph unicode="&#x2019;" horiz-adv-x="348" d="M82 1280q-2 -33 24 -66q23 -23 62 -26q0 -37 -23.5 -76t-56.5 -51v-33q63 18 118.5 100t59.5 152q2 39 -25.5 64.5t-66.5 27.5t-64.5 -25.5t-27.5 -66.5z" />
<glyph unicode="&#x201a;" horiz-adv-x="348" d="M82 92q-2 -33 24 -65q23 -23 62 -27q0 -37 -23.5 -76t-56.5 -51v-33q63 18 118.5 100.5t59.5 151.5q2 39 -25.5 64.5t-66.5 27.5t-64.5 -25.5t-27.5 -66.5z" />
<glyph unicode="&#x201c;" horiz-adv-x="589" d="M82 1120q-2 68 55.5 148t122.5 104v-33q-29 -12 -57 -49q-18 -33 -23 -78q37 0 60.5 -27.5t25.5 -64.5q2 -39 -25.5 -64.5t-66.5 -27.5t-64.5 25.5t-27.5 66.5zM324 1120q-2 68 55 148t123 104v-33q-29 -12 -58 -49q-18 -33 -22 -78q37 0 60.5 -27.5t25.5 -64.5 q2 -39 -25.5 -64.5t-66.5 -27.5t-64.5 25.5t-27.5 66.5z" />
<glyph unicode="&#x201d;" horiz-adv-x="589" d="M82 1280q0 88 92 92q39 2 64.5 -25.5t27.5 -66.5q2 -66 -56 -146.5t-122 -105.5v33q35 14 57.5 51t22.5 76q-39 0 -62.5 26.5t-23.5 65.5zM324 1280q0 88 92 92q39 2 64.5 -25.5t27.5 -66.5q2 -66 -56.5 -146.5t-121.5 -105.5v33q35 14 57.5 51t22.5 76q-39 0 -62.5 26.5 t-23.5 65.5z" />
<glyph unicode="&#x201e;" horiz-adv-x="589" d="M82 92q0 88 92 92q39 2 64.5 -25.5t27.5 -66.5q2 -66 -56 -146.5t-122 -105.5v33q35 14 57.5 51t22.5 76q-39 0 -62.5 26.5t-23.5 65.5zM324 92q0 88 92 92q39 2 64.5 -25.5t27.5 -66.5q2 -66 -56.5 -146.5t-121.5 -105.5v33q35 14 57.5 51t22.5 76q-39 0 -62.5 26.5 t-23.5 65.5z" />
<glyph unicode="&#x2022;" horiz-adv-x="731" d="M82 512q-2 119 81 201t202 84q117 2 199.5 -82t84.5 -203t-82 -200t-202 -83q-119 -2 -200 81t-83 202z" />
<glyph unicode="&#x2026;" horiz-adv-x="1085" d="M82 92q-2 39 25.5 64.5t66.5 27.5t64.5 -25.5t27.5 -66.5t-25.5 -64.5t-66.5 -27.5t-64.5 25.5t-27.5 66.5zM451 92q-2 39 25.5 64.5t66.5 27.5t64.5 -25.5t27.5 -66.5t-25.5 -64.5t-66.5 -27.5t-64.5 25.5t-27.5 66.5zM819 92q-2 39 25.5 64.5t66.5 27.5t64.5 -25.5 t28.5 -66.5q2 -39 -26 -64.5t-67 -27.5t-64.5 25.5t-27.5 66.5z" />
<glyph unicode="&#x202f;" horiz-adv-x="358" />
<glyph unicode="&#x2039;" horiz-adv-x="649" d="M82 512q0 37 31 55l350 291q16 12 41 16q55 0 63 -65q0 -31 -22 -49l-297 -248l297 -248q18 -16 22 -49q0 -57 -63 -65q-20 0 -41 16l-350 291q-31 18 -31 55z" />
<glyph unicode="&#x203a;" horiz-adv-x="649" d="M82 215q0 -59 63 -65q27 0 43 16l349 291q31 18 30 55q0 37 -30 55l-349 291q-16 12 -43 16q-27 0 -45 -19t-18 -46q0 -31 22 -49l297 -248l-297 -248q-18 -16 -22 -49z" />
<glyph unicode="&#x205f;" horiz-adv-x="448" />
<glyph unicode="&#x2122;" horiz-adv-x="1708" d="M82 1309q-2 63 63 63h461q63 0 66 -63q2 -66 -66 -66h-166v-522q0 -63 -63 -66q-66 -2 -66 66v522h-164q-63 0 -65 66zM801 719v590q0 61 63 63q29 0 51 -24l299 -527l297 527q18 25 52 24q63 0 63 -65v-588q0 -61 -63 -64q-66 -2 -66 64v377l-233 -416q-18 -25 -50 -25 q-29 0 -51 25l-233 416v-377q0 -61 -64 -64q-65 -2 -65 64z" />
<glyph unicode="&#xe000;" horiz-adv-x="1025" d="M0 1025h1025v-1025h-1025v1025z" />
<glyph unicode="&#xfb01;" horiz-adv-x="1021" d="M770 66v892q0 66 63 66q66 0 66 -66v-892q0 -66 -64 -66q-65 0 -65 66zM770 1307q0 64 62 63h3q63 -2 64 -65q0 -62 -62 -62h-4q-63 3 -63 64zM41 961q0 -66 65 -66h111v-829q0 -66 60 -66h4q66 2 65 66v829h236q66 0 65 66q0 63 -63 63h-238q4 104 67.5 160.5 t168.5 58.5q66 2 65 66q-8 64 -62 63h-3q-160 -8 -260.5 -100t-104.5 -248h-111q-65 0 -65 -63z" />
<glyph unicode="&#xfb02;" horiz-adv-x="1021" d="M770 66v1241q0 66 63 65q66 0 66 -63v-1243q0 -66 -64 -66q-65 0 -65 66zM41 961q0 -66 65 -66h111v-829q0 -66 60 -66h4q66 2 65 66v829h236q66 0 65 66q0 63 -63 63h-238q4 104 67.5 160.5t168.5 58.5q66 2 65 66q-8 64 -62 63h-3q-160 -8 -260.5 -100t-104.5 -248 h-111q-65 0 -65 -63z" />
<glyph unicode="&#xfb03;" horiz-adv-x="1710" d="M1458 66v892q0 66 63 66q66 0 66 -66v-892q0 -66 -64 -66q-65 0 -65 66zM1458 1307q0 64 62 63h3q63 -2 64 -65q0 -62 -62 -62h-4q-63 3 -63 64zM729 961q0 -66 65 -66h111v-829q0 -66 60 -66h4q66 2 65 66v829h236q66 0 65 66q0 63 -63 63h-238q4 104 67.5 160.5 t168.5 58.5q66 2 65 66q-8 64 -62 63h-3q-160 -8 -260.5 -100t-104.5 -248h-111q-65 0 -65 -63zM41 961q0 -66 65 -66h111v-829q0 -66 60 -66h4q66 2 65 66v829h236q66 0 65 66q0 63 -63 63h-238q4 104 67.5 160.5t168.5 58.5q66 2 65 66q-8 64 -62 63h-3 q-160 -8 -260.5 -100t-104.5 -248h-111q-65 0 -65 -63z" />
<glyph unicode="&#xfb04;" horiz-adv-x="1710" d="M1458 66v1241q0 66 63 65q66 0 66 -63v-1243q0 -66 -64 -66q-65 0 -65 66zM729 961q0 -66 65 -66h111v-829q0 -66 60 -66h4q66 2 65 66v829h236q66 0 65 66q0 63 -63 63h-238q4 104 67.5 160.5t168.5 58.5q66 2 65 66q-8 64 -62 63h-3q-160 -8 -260.5 -100t-104.5 -248 h-111q-65 0 -65 -63zM41 961q0 -66 65 -66h111v-829q0 -66 60 -66h4q66 2 65 66v829h236q66 0 65 66q0 63 -63 63h-238q4 104 67.5 160.5t168.5 58.5q66 2 65 66q-8 64 -62 63h-3q-160 -8 -260.5 -100t-104.5 -248h-111q-65 0 -65 -63z" />
</font>
</defs>
</svg>
